Подписывайся на наш канал в Telegram https://t.me/torrentok и получи доступ к торрентам без ограничений!
.
Авторизация | Регистрация
torrent123.club


CreativeLive.com | Cinematographers Preparation (2016) WEB-DL [H.264 / 720p-LQ] торрент скачать бесплатно

Дата: 30-06-2020, 05:00 | .torrent скачали: 0

CreativeLive.com | Cinematographers Preparation (2016) WEB-DL [H.264 / 720p-LQ]Автор: Jim Denault, ASC
Производство: CreativeLive.com
Жанр: Видеоурок, туториал

Описание

Оператор-постановщик должен не просто ставить камеру и снимать. Приготовления к съёмке фильма – сложная, продуманная творческая работа. Курс Подготовка кинематографиста с Джимом Дено научит вас продумывать и строить творческие и наиболее эффектные кадры.
Продолжительность: 04: 29: 00
Качество видео: WEB-DL
Язык озвучки: Английский
Видео: AVC/H.264, 1280x720, ~1742 Kb/s VBR
Аудио: AAC, 2 ch, 125 Kb/s VBR
General
Complete name : ...CreativeLive - Cinematographer\'s Preparation with Jim DenaultS01L05 - LINE_PRODUCER.mp4
Format : MPEG-4
Format profile : Base Media/Version 2
Codec ID : mp42 (mp42/mp41)
File size : 117 MiB
Duration : 8 min 46 s
Overall bit rate mode : Variable
Overall bit rate : 1 872 kb/s
Encoded date : UTC 2015-03-31 20: 03: 55
Tagged date : UTC 2015-03-31 20: 03: 58
TIM : 00: 00: 00: 00
TSC : 24000
TSZ : 1001
Video
ID : 1
Format : AVC
Format/Info : Advanced Video Codec
Format profile : Main@L3.1
Format settings : CABAC/3 Ref Frames
Format settings, CABAC : Yes
Format settings, Reference frames : 3 frames
Codec ID : avc1
Codec ID/Info : Advanced Video Coding
Duration : 8 min 46 s
Bit rate mode : Variable
Bit rate : 1 742 kb/s
Maximum bit rate : 3 000 kb/s
Width : 1 280 pixels
Height : 720 pixels
Display aspect ratio : 16: 9
Frame rate mode : Constant
Frame rate : 23.976 (24000/1001) FPS
Standard : NTSC
Color space : YUV
Chroma subsampling : 4: 2: 0
Bit depth : 8 bits
Scan type : Progressive
Bits/(Pixel*Frame) : 0.079
Stream size : 109 MiB (93%)
Language : English
Encoded date : UTC 2015-03-31 20: 03: 55
Tagged date : UTC 2015-03-31 20: 03: 55
Color range : Limited
Codec configuration box : avcC
Audio
ID : 2
Format : AAC LC
Format/Info : Advanced Audio Codec Low Complexity
Codec ID : mp4a-40-2
Duration : 8 min 46 s
Source duration : 8 min 46 s
Bit rate mode : Variable
Bit rate : 125 kb/s
Maximum bit rate : 202 kb/s
Channel(s) : 2 channels
Channel layout : L R
Sampling rate : 48.0 kHz
Frame rate : 46.875 FPS (1024 SPF)
Compression mode : Lossy
Stream size : 7.86 MiB (7%)
Source stream size : 7.86 MiB (7%)
Language : English
Encoded date : UTC 2015-03-31 20: 03: 55
Tagged date : UTC 2015-03-31 20: 03: 55
Рейтинг →
 (голосов: 1, оценка 5/5, голосовать можно 1 раз )

Другие торренты по теме:

  • CreativeLive | Фуд фотография от Эндрю Скривани / Food Photography with Andrew Scrivani (2013) DVDRip [EN]


    • Комментарии (0):

      Информация

      Информация

        Посетители, находящиеся в группе Гости, не могут оставлять комментарии в данной новости.

        ↓ Меню




        Популярное