Подписывайся на наш канал в Telegram https://t.me/torrentok и получи доступ к торрентам без ограничений!
.
Авторизация | Регистрация
torrent123.club


Lynda.com | Video Production and Post Tips (Updated3 / 31 / 2017) WEB-DL торрент скачать бесплатно

Дата: 30-06-2020, 05:00 | .torrent скачали: 0

Lynda.com | Video Production and Post Tips (Updated3 / 31 / 2017) WEB-DLАвтор: Richard Harrington, Robbie Carman
Производство: Lynda.com
Жанр: Видеоурок, туториал

Описание

Практикуйтесь и набирайтесь опыта вместе с этим мега-видеокурсом! Вы узнаете о нестандартных приёмах съёмки видео и способах решения разных проблем видеопроизводства. Также в курсе вы найдёте целый склад полезных советов от мастеров своего дела.
Продолжительность: 12: 49: 00
Качество видео: WEB-DL
Язык озвучки: Английский
Видео: AVC/H.264, 1280x720, ~583 Kb/s VBR
Аудио: AAC, 2 ch, 128 Kb/s
General
Complete name : ...video-production-and-post-tips44-6-should-i-transcode-my-footage3-how-do-i-transcode.mp4
Format : MPEG-4
Format profile : Base Media/Version 2
Codec ID : mp42 (mp42/isom)
File size : 63.0 MiB
Duration : 11 min 45 s
Overall bit rate mode : Variable
Overall bit rate : 749 kb/s
Encoded date : UTC 2016-05-23 15: 19: 21
Tagged date : UTC 2016-05-23 15: 19: 21
Video
ID : 1
Format : AVC
Format/Info : Advanced Video Codec
Format profile : Main@L3.2
Format settings : CABAC/5 Ref Frames
Format settings, CABAC : Yes
Format settings, Reference frames : 5 frames
Codec ID : avc1
Codec ID/Info : Advanced Video Coding
Duration : 11 min 45 s
Bit rate mode : Variable
Bit rate : 583 kb/s
Maximum bit rate : 1 000 kb/s
Width : 1 280 pixels
Height : 720 pixels
Display aspect ratio : 16: 9
Frame rate mode : Constant
Frame rate : 29.970 (30000/1001) FPS
Color space : YUV
Chroma subsampling : 4: 2: 0
Bit depth : 8 bits
Scan type : Progressive
Bits/(Pixel*Frame) : 0.021
Stream size : 49.0 MiB (78%)
Title : Telestream Inc. Dib Library - ReleaseVantage 2014.59.138974
Writing library : x264 core 129
Encoding settings : cabac=1/ref=5/deblock=1: 0: 0/analyse=0x1: 0x111/me=hex/subme=7/psy=1/psy_rd=1.00: 0.00/mixed_ref=1/me_range=16/chroma_me=1/trellis=1/8x8dct=0/cqm=0/deadzone=21, 11/fast_pskip=1/chroma_qp_offset=-2/threads=10/lookahead_threads=1/sliced_threads=0/nr=0/decimate=1/interlaced=0/bluray_compat=0/constrained_intra=0/bframes=1/b_pyramid=0/b_adapt=1/b_bias=0/direct=1/weightb=1/open_gop=0/weightp=2/keyint=300/keyint_min=29/scenecut=40/intra_refresh=0/rc_lookahead=40/rc=crf/mbtree=1/crf=22.0/qcomp=0.60/qpmin=0/qpmax=69/qpstep=4/vbv_maxrate=1000/vbv_bufsize=14900/crf_max=0.0/nal_hrd=vbr/ip_ratio=3.00/aq=1: 1.00
Language : English
Encoded date : UTC 2016-05-23 15: 19: 21
Tagged date : UTC 2016-05-23 15: 19: 21
Codec configuration box : avcC
Audio
ID : 2
Format : AAC LC
Format/Info : Advanced Audio Codec Low Complexity
Codec ID : mp4a-40-2
Duration : 11 min 45 s
Bit rate mode : Constant
Bit rate : 160 kb/s
Nominal bit rate : 128 kb/s
Channel(s) : 2 channels
Channel layout : L R
Sampling rate : 48.0 kHz
Frame rate : 46.875 FPS (1024 SPF)
Compression mode : Lossy
Stream size : 13.5 MiB (21%)
Title : Telestream Inc. Dib Library - ReleaseVantage 2014.59.138974
Language : English
Encoded date : UTC 2016-05-23 15: 19: 21
Tagged date : UTC 2016-05-23 15: 19: 21
Рейтинг →
 (голосов: 1, оценка 3/5, голосовать можно 1 раз )

Другие торренты по теме:

  • Lynda.com | Video Post Productivity Weekly (Updated5 / 1 / 2018) WEB-DL [H.264 / 720p-LQ]


    • Комментарии (0):

      Информация

      Информация

        Посетители, находящиеся в группе Гости, не могут оставлять комментарии в данной новости.