Подписывайся на наш канал в Telegram https://t.me/torrentok и получи доступ к торрентам без ограничений!
.
Авторизация | Регистрация
torrent123.club

Специалист | Эксперт - программист Java (2017-2018) PCRec торрент скачать бесплатно

Дата: 31-07-2020, 05:00 | .torrent скачали: 0

Специалист | Эксперт - программист Java (2017-2018) PCRecАвтор: Специалист
Жанр: Программирование, Java

Описание

Наши эксперты разработали для Вас комплексную программу подготовки Эксперт - программист Java. Пройдя обучение по комплексной программе, Вы получите все необходимые знания и навыки для работы в области программирования на языке Java. Программа составлена с учетом наиболее распространенных требований работодателей к сотрудникам.
В комплексную программу подготовки входят курсы:
Курс Java SE8. Уровень 1. Основы программирования
Курс Java SE. Уровень 2. Разработка клиент-серверных приложений
Курс Java: технология Enterprise Java Beans 3.0
Продолжительность: 55: 49: 37
Качество видео: PCRec
Видео: AVC/H.264, 1152x864, ~96 Kbps
Аудио: AAC, 2 ch, 56 Kbps
Общее
Полное имя : Специалист Эксперт - программист Java (2018)Java. Уровень 1. Основы программирования1 Java Уровень 1 Основы программирования 1.mp4
Формат : MPEG-4
Профиль формата : Base Media
Идентификатор кодека : isom (isom/avc1/iso6)
Размер файла : 293 Мбайт
Продолжительность : 4 ч. 25 м.
Режим общего битрейта : Переменный
Общий поток : 155 Кбит/сек
Дата кодирования : UTC 2017-10-25 17: 03: 35
Дата пометки : UTC 2017-10-25 17: 03: 35
Видео
Идентификатор : 1
Формат : AVC
Формат/Информация : Advanced Video Codec
Профиль формата : High@L3.1
Настройки формата : CABAC/8 Ref Frames
Параметр CABAC формата : Да
Параметр RefFrames формата : 8 кадров
Идентификатор кодека : avc1
Идентификатор кодека/Информация : Advanced Video Coding
Продолжительность : 4 ч. 25 м.
Битрейт : 96, 0 Кбит/сек
Максимальный битрейт : 4 297 Кбит/сек
Ширина : 1 152 пикселя
Высота : 864 пикселя
Соотношение сторон : 4: 3
Режим частоты кадров : Постоянный
Частота кадров : 10, 000 кадров/сек
Цветовое пространство : YUV
Субдискретизация насыщенности : 4: 2: 0
Битовая глубина : 8 бит
Тип развёртки : Прогрессивная
Бит/(Пиксели*Кадры) : 0.010
Размер потока : 182 Мбайт (62%)
Заголовок : 264@GPAC0.5.2-DEV-rev248-g39d5978-master
Библиотека кодирования : x264 core 146 r2538 121396c
Дата кодирования : UTC 2017-10-25 17: 03: 35
Дата пометки : UTC 2017-10-25 17: 04: 11
Codec configuration box : avcC
Аудио
Идентификатор : 2
Формат : AAC LC
Формат/Информация : Advanced Audio Codec Low Complexity
Идентификатор кодека : mp4a-40-2
Продолжительность : 4 ч. 25 м.
Вид битрейта : Переменный
Битрейт : 56, 0 Кбит/сек
Максимальный битрейт : 60, 4 Кбит/сек
Каналы : 2 канала
Channel layout : L R
Частота : 44, 1 КГц
Частота кадров : 43, 066 кадра/сек (1024 SPF)
Метод сжатия : С потерями
Размер потока : 106 Мбайт (36%)
Дата кодирования : UTC 2017-10-25 16: 00: 08
Дата пометки : UTC 2017-10-25 17: 04: 11
Рейтинг →
 (голосов: 1, оценка 4/5, голосовать можно 1 раз )

Другие торренты по теме:

  • Специалист | Эксперт по программированию на JavaScript (со знанием jQuery, AJAX и Node.js) (2016) PCRec [H.264]


    • Комментарии (0):

      Информация

      Информация

        Посетители, находящиеся в группе Гости, не могут оставлять комментарии в данной новости.

        ↓ Меню




        Популярное