Подписывайся на наш канал в Telegram https://t.me/torrentok и получи доступ к торрентам без ограничений!
.
Авторизация | Регистрация
torrent123.club


[CG-School] Андрей Заморский | VFX pack 1 (Streams) (2013-2014) PCRec торрент скачать бесплатно

Дата: 31-07-2020, 05:00 | .torrent скачали: 0

[CG-School] Андрей Заморский | VFX pack 1 (Streams) (2013-2014) PCRecАвтор: Андрей Заморский
Производство: cg-school.org
Жанр: Создание видео

Описание

“VFX pack – 1” это собранные в одном месте практические платные стримы по VFX и композитингу для начинающих. Они дадут вам общую базу. На данный момент туда входят стримы по Real Flow, Nuke, PhoenixFD, Krakatoa, Element3d (After Effects), Постобработке. По мере проведения новых практических стримов, “VFX pack -1” постоянно будет пополняться новыми записями. Если вы уже приобрели “VFX pack -1”, вы так же будете иметь доступ и к будущему новому материалу.
Продолжительность: 17: 00: 00
Качество видео: PCRec
Видео: AVC/H.264, 1920x1080, ~463 kbps
Аудио: AAC, 2 ch, 53 kbps
General
Complete name : J: CG-School VFX pack 1КракатоаКракатоа.mp4
Format : MPEG-4
Format profile : Base Media/Version 2
Codec ID : mp42 (M4V /mp42/isom)
File size : 427 MiB
Duration : 1 h 55 min
Overall bit rate : 519 kb/s
Encoded date : UTC 2014-05-13 08: 29: 04
Tagged date : UTC 2014-05-13 08: 29: 04
Video
ID : 1
Format : AVC
Format/Info : Advanced Video Codec
Format profile : High@L4
Format settings : CABAC/4 Ref Frames
Format settings, CABAC : Yes
Format settings, Reference fra : 4 frames
Format settings, GOP : M=1, N=75
Codec ID : avc1
Codec ID/Info : Advanced Video Coding
Duration : 1 h 55 min
Source duration : 1 h 55 min
Bit rate : 463 kb/s
Width : 1 920 pixels
Height : 1 080 pixels
Display aspect ratio : 16: 9
Frame rate mode : Constant
Frame rate : 15.000 FPS
Color space : YUV
Chroma subsampling : 4: 2: 0
Bit depth : 8 bits
Scan type : Progressive
Bits/(Pixel*Frame) : 0.015
Stream size : 381 MiB (89%)
Source stream size : 381 MiB (89%)
Language : English
Encoded date : UTC 2014-05-13 08: 29: 04
Tagged date : UTC 2014-05-13 08: 29: 04
Color range : Limited
Color primaries : BT.709
Transfer characteristics : BT.709
Matrix coefficients : BT.709
mdhd_Duration : 6908891
Codec configuration box : avcC
Audio
ID : 2
Format : AAC LC
Format/Info : Advanced Audio Codec Low Complexity
Codec ID : mp4a-40-2
Duration : 1 h 55 min
Source duration : 1 h 55 min
Bit rate mode : Constant
Bit rate : 53.4 kb/s
Channel(s) : 2 channels
Channel layout : L R
Sampling rate : 44.1 kHz
Frame rate : 43.066 FPS (1024 SPF)
Compression mode : Lossy
Stream size : 44.1 MiB (10%)
Source stream size : 44.1 MiB (10%)
Language : English
Encoded date : UTC 2014-05-13 08: 29: 04
Tagged date : UTC 2014-05-13 08: 29: 04
mdhd_Duration : 6922338
Рейтинг →
 (голосов: 1, оценка 4/5, голосовать можно 1 раз )

Другие торренты по теме:

  • Motion Design School | CG Adventure (2020) PCRec [H.264 / 1080p]


    • Комментарии (0):

      Информация

      Информация

        Посетители, находящиеся в группе Гости, не могут оставлять комментарии в данной новости.

        ↓ Меню




        Популярное