Подписывайся на наш канал в Telegram https://t.me/torrentok и получи доступ к торрентам без ограничений!
.
Авторизация | Регистрация
torrent123.club
Торрент трекер | Скачать торрент | Скачать Через Торрент | Скачать торрент бесплатно | Скачать торрент без регистрации Книги торрент скачать [Udemy] Maximilian Schwarzmüller | NodeJS - Полное руководство (включая MVC, REST API, GraphQL) / NodeJS - The Complete Guide (MVC, REST APIs, GraphQL, Deno) (2018) PCRec [En] торрент скачать бесплатно


    [Udemy] Maximilian Schwarzmüller | NodeJS - Полное руководство (включая MVC, REST API, GraphQL) / NodeJS - The Complete Guide (MVC, REST APIs, GraphQL, Deno) (2018) PCRec [En] торрент скачать бесплатно

    Дата: 31-07-2020, 05:00 | .torrent скачали: 0

    [Udemy] Maximilian Schwarzmüller | NodeJS - Полное руководство (включая MVC, REST API, GraphQL) / NodeJS - The Complete Guide (MVC, REST APIs, GraphQL, Deno) (2018) PCRec [En]Автор: Maximilian Schwarzmüller
    Производство: Udemy
    Жанр: Программирование, NodeJS

    Описание

    Изучите Node, постройте REST API с помощью Node.js, GraphQL, добавьте аутентификацию, используйте MongoDB, SQL и многое другое! Node.js, вероятно, самый популярный и современный серверный язык программирования, в который вы можете погрузиться в эти дни!
    Разработчики Node.js пользуются большим спросом, и язык используется для всего, начиная от традиционных веб-приложений и с представлений на стороне сервера, с использованием API REST вплоть до API-интерфейсов GraphQL и веб-сервисов. Не говоря уже о его приложениях для построения рабочих процессов для проектов любого размера.
    Продолжительность: 38: 44: 40
    Качество видео: PCRec
    Язык озвучки: Английский
    Видео: AVC/H.264, 1280x720, ~138 Kbps
    Аудио: AAC, 2 ch, 128 Kbps
    Общее
    Полное имя : Udemy NodeJS - Полное руководство (включая MVC, REST API, GraphQL) (2018)2. Optional JavaScript - A Quick Refresher1. Module Introduction.mp4
    Формат : MPEG-4
    Профиль формата : Base Media
    Идентификатор кодека : isom (isom/iso2/avc1/mp41)
    Размер файла : 3, 16 Мбайт
    Продолжительность : 1 м. 36 с.
    Общий поток : 275 Кбит/сек
    Программа кодирования : Lavf58.12.100
    Видео
    Идентификатор : 1
    Формат : AVC
    Формат/Информация : Advanced Video Codec
    Профиль формата : Main@L3.1
    Настройки формата : CABAC/4 Ref Frames
    Параметр CABAC формата : Да
    Параметр RefFrames формата : 4 кадра
    Параметр GOP формата : M=4, N=60
    Идентификатор кодека : avc1
    Идентификатор кодека/Информация : Advanced Video Coding
    Продолжительность : 1 м. 36 с.
    Битрейт : 138 Кбит/сек
    Номинальный битрейт : 3 000 Кбит/сек
    Ширина : 1 280 пикселей
    Высота : 720 пикселей
    Соотношение сторон : 16: 9
    Режим частоты кадров : Постоянный
    Частота кадров : 30, 000 кадров/сек
    Цветовое пространство : YUV
    Субдискретизация насыщенности : 4: 2: 0
    Битовая глубина : 8 бит
    Тип развёртки : Прогрессивная
    Бит/(Пиксели*Кадры) : 0.005
    Размер потока : 1, 59 Мбайт (50%)
    Библиотека кодирования : x264 core 148
    Codec configuration box : avcC
    Аудио
    Идентификатор : 2
    Формат : AAC LC
    Формат/Информация : Advanced Audio Codec Low Complexity
    Идентификатор кодека : mp4a-40-2
    Продолжительность : 1 м. 36 с.
    Вид битрейта : Постоянный
    Битрейт : 128 Кбит/сек
    Каналы : 2 канала
    Channel layout : L R
    Частота : 48, 0 КГц
    Частота кадров : 46, 875 кадров/сек (1024 SPF)
    Метод сжатия : С потерями
    Размер потока : 1, 47 Мбайт (47%)
    Default : Да
    Alternate group : 1
    Рейтинг →
     (голосов: 1, оценка 5/5, голосовать можно 1 раз )

    Другие торренты по теме:

  • [Udemy] Владилен Минин | MEAN. Angular, Node, Express, Mongo. Создание Сервиса с Нуля (2020) PCRec
  • Udemy | Изучение взлома Wi-fi паролей / ключей (WEP / WPA / WPA2) / Learn Cracking Wi-fi Passwords / Keys (WEP / WPA / WPA2) (2015) PCRec [EN]
  • Udemy | Certified Metasploit Framework Professional (2014) PCRec [EN] скачать через торрент бесплатно
  • Udemy.com | Создание сайта с нуля с помощью HTML и CSS / Build Websites from Scratch with HTML & CSS (2014) PCRec [H.264 / 720p] [EN] скачать через торрент бесплатно
  • Udemy.com | Станьте web-разработчиком с нуля / Become a Web Developer from Scratch (2015) PCRec [H.264 / 720p] [EN] скачать через торрент бесплатно
  • Udemy.com | Infinite Skills | Написание безопасного PHP-кода. Уроки о защите. | Writing Secure PHP Code - PHP Security Tutorial (2014) PCRec [H.264 / 720p] [EN] скачать через торрент бесплатно
  • Udemy.com | Hacking School & IT Security Academy | Практический взлом сайтов | Website Hacking in Practice (2014) PCRec [H.264 / 720p] [EN] скачать через торрент бесплатно
  • Udemy | Kickstart ur Network Security Career: Checkpoint CCSA Course (2015) PCRec [H.264 / 720p] [EN] скачать через торрент бесплатно


    • Комментарии (0):

      Информация

      Информация

        Посетители, находящиеся в группе Гости, не могут оставлять комментарии в данной новости.

        ↓ Меню




        Популярное