Подписывайся на наш канал в Telegram https://t.me/torrentok и получи доступ к торрентам без ограничений!
.
Авторизация | Регистрация
torrent123.club


[CG-School] Андрей Заморский | VFX pack 3 (углубленный) (2015) PCRec торрент скачать бесплатно

Дата: 31-07-2020, 05:00 | .torrent скачали: 0

[CG-School] Андрей Заморский | VFX pack 3 (углубленный) (2015) PCRecАвтор: Андрей Заморский
Производство: cg-school.org
Жанр: Создание видео

Описание

Видеоуроки по созданию разрушений, взрывов, пыли и других подобных явлений.
Эти уроки для вас, если вы хотите
научиться работать в лучших плагинах для 3ds max для создания визуальных эффектов
узнать основы создания визуальных эффектов
научиться создавать фрагменты
научиться делать сложную динамику разрушения посредством плагинов RayFire и VolumeBreaker.
научиться создавать vfx сцены в программе Nuke
Продолжительность: 12: 03: 00
Качество видео: PCRec
Видео: MPEG-4, 1920x1080, ~4462 kbps
Аудио: AAC, 2 ch, 189 kbps
General
Complete name : J: CG-School VFX pack 3ч.11-011-01.mp4
Format : MPEG-4
Format profile : Base Media/Version 2
Codec ID : mp42 (mp42/mp41)
File size : 702 MiB
Duration : 21 min 4 s
Overall bit rate mode : Variable
Overall bit rate : 4 655 kb/s
Encoded date : UTC 2015-07-19 22: 05: 31
Tagged date : UTC 2015-07-19 22: 05: 52
TIM : 00: 00: 00: 00
TSC : 25
TSZ : 1
Video
ID : 1
Format : AVC
Format/Info : Advanced Video Codec
Format profile : Main@L4.2
Format settings : CABAC/3 Ref Frames
Format settings, CABAC : Yes
Format settings, Reference fra : 3 frames
Format settings, GOP : M=4, N=25
Codec ID : avc1
Codec ID/Info : Advanced Video Coding
Duration : 21 min 4 s
Bit rate mode : Variable
Bit rate : 4 462 kb/s
Maximum bit rate : 13.0 Mb/s
Width : 1 920 pixels
Height : 1 080 pixels
Display aspect ratio : 16: 9
Frame rate mode : Constant
Frame rate : 25.000 FPS
Standard : PAL
Color space : YUV
Chroma subsampling : 4: 2: 0
Bit depth : 8 bits
Scan type : Progressive
Bits/(Pixel*Frame) : 0.086
Stream size : 673 MiB (96%)
Language : English
Encoded date : UTC 2015-07-19 22: 05: 31
Tagged date : UTC 2015-07-19 22: 05: 31
Color range : Limited
Codec configuration box : avcC
Audio
ID : 2
Format : AAC LC
Format/Info : Advanced Audio Codec Low Complexity
Codec ID : mp4a-40-2
Duration : 21 min 4 s
Source duration : 21 min 4 s
Bit rate mode : Variable
Bit rate : 192 kb/s
Maximum bit rate : 242 kb/s
Channel(s) : 2 channels
Channel layout : L R
Sampling rate : 48.0 kHz
Frame rate : 46.875 FPS (1024 SPF)
Compression mode : Lossy
Stream size : 28.5 MiB (4%)
Source stream size : 28.5 MiB (4%)
Language : English
Encoded date : UTC 2015-07-19 22: 05: 31
Tagged date : UTC 2015-07-19 22: 05: 31
Рейтинг →
 (голосов: 1, оценка 3/5, голосовать можно 1 раз )

Другие торренты по теме:

  • Motion Design School | CG Adventure (2020) PCRec [H.264 / 1080p]


    • Комментарии (0):

      Информация

      Информация

        Посетители, находящиеся в группе Гости, не могут оставлять комментарии в данной новости.

        ↓ Меню




        Популярное