Подписывайся на наш канал в Telegram https://t.me/torrentok и получи доступ к торрентам без ограничений!
.
Авторизация | Регистрация
torrent123.club


WebCademy | JavaScript разработчик: Уровень Developer (2020) PCRec торрент скачать бесплатно

Дата: 31-07-2020, 05:00 | .torrent скачали: 1

WebCademy | JavaScript разработчик: Уровень Developer (2020) PCRecАвтор: WebCademy
Жанр: Программирование, JavaScript

Описание

Повысьте свой уровень владения JavaScript. Станьте востребованным и высокооплачиваемым специалистом. Освойте JavaScript - один из самых популярных, востребованных и высокооплачиваемых языков программирования. JS используется во FrontEnd и Backend разработке.
Продолжительность: 31: 03: 16
Качество видео: PCRec
Видео: AVC/H.264, 1280x720, ~148 Kbps
Аудио: AAC, 2 ch, 128 Kbps
Общее
Полное имя : WEBCADEMY JavaScript разработчик Уровень Developer (2020)0 Материалы для подготовки2 Серия вебинаров по JS2 Изучаем JavaScript- Пишем фото редактор на Canvas и JS- Практика-.mp4
Формат : MPEG-4
Профиль формата : Base Media/Version 2
Идентификатор кодека : mp42 (isom/mp42)
Размер файла : 189 Мбайт
Продолжительность : 1 ч. 34 м.
Режим общего битрейта : Переменный
Общий поток : 278 Кбит/сек
Дата кодирования : UTC 2019-01-20 00: 07: 03
Дата пометки : UTC 2019-01-20 00: 07: 03
gsst : 0
gstd : 5696156
Видео
Идентификатор : 1
Формат : AVC
Формат/Информация : Advanced Video Codec
Профиль формата : Main@L3.1
Настройки формата : CABAC/3 Ref Frames
Параметр CABAC формата : Да
Параметр RefFrames формата : 3 кадра
Идентификатор кодека : avc1
Идентификатор кодека/Информация : Advanced Video Coding
Продолжительность : 1 ч. 34 м.
Битрейт : 148 Кбит/сек
Ширина : 1 280 пикселей
Высота : 720 пикселей
Соотношение сторон : 16: 9
Режим частоты кадров : Постоянный
Частота кадров : 10, 000 кадров/сек
Цветовое пространство : YUV
Субдискретизация насыщенности : 4: 2: 0
Битовая глубина : 8 бит
Тип развёртки : Прогрессивная
Бит/(Пиксели*Кадры) : 0.016
Размер потока : 100 Мбайт (53%)
Заголовок : ISO Media file produced by Google Inc. Created on: 01/19/2019.
Дата кодирования : UTC 2019-01-20 00: 07: 03
Дата пометки : UTC 2019-01-20 00: 07: 03
Цветовой диапазон : Limited
Основные цвета : BT.709
Характеристики трансфера : BT.709
Коэффициенты матрицы : BT.709
Codec configuration box : avcC
Аудио
Идентификатор : 2
Формат : AAC LC
Формат/Информация : Advanced Audio Codec Low Complexity
Идентификатор кодека : mp4a-40-2
Продолжительность : 1 ч. 34 м.
Вид битрейта : Переменный
Битрейт : 128 Кбит/сек
Каналы : 2 канала
Channel layout : L R
Частота : 44, 1 КГц
Частота кадров : 43, 066 кадра/сек (1024 SPF)
Метод сжатия : С потерями
Размер потока : 86, 9 Мбайт (46%)
Заголовок : ISO Media file produced by Google Inc. Created on: 01/19/2019.
Дата кодирования : UTC 2019-01-20 00: 07: 03
Дата пометки : UTC 2019-01-20 00: 07: 03
Рейтинг →
 (голосов: 1, оценка 3/5, голосовать можно 1 раз )

Другие торренты по теме:

  • Webcademy | Gulp Сборка (2018) PCRec [H.264]
  • Webcademy | Сборка Gulp 4.0 (2019) PCRec [H.264]


    • Комментарии (0):

      Информация

      Информация

        Посетители, находящиеся в группе Гости, не могут оставлять комментарии в данной новости.

        ↓ Меню




        Популярное