Подписывайся на наш канал в Telegram https://t.me/torrentok и получи доступ к торрентам без ограничений!
.
Авторизация | Регистрация
torrent123.club
Торрент трекер | Скачать торрент | Скачать Через Торрент | Скачать торрент бесплатно | Скачать торрент без регистрации КПК и мобильные торрент скачать Столкновение / Carpisma (2018) WEB-DLRip [H.264] (серии 1-74 из 74) Мобильное телевидение [MP4|1280x720] торрент скачать бесплатно


    Столкновение / Carpisma (2018) WEB-DLRip [H.264] (серии 1-74 из 74) Мобильное телевидение [MP4|1280x720] торрент скачать бесплатно

    Дата: 29-06-2020, 05:00 | .torrent скачали: 0

    Столкновение / Carpisma (2018) WEB-DLRip [H.264] (серии 1-74 из 74) Мобильное телевидение [MP4|1280x720]Производство: Турция, Ay Yapım
    Жанр: Боевик, триллер, драма
    Режиссер: Улуч Байрактар
    Актеры: Кыванч Татлытуг, Эльчин Сангу, Алперен Дуймаз, Мелиса Аслы Памук, Онур Сайлак, Рожда Демирер, Мерве Чагыран, Хакан Курташ, Эркан Джан

    Описание

    Кадир Адалы старший комиссар в стамбульском участке по борьбе с организованной преступностью. Он жил счастливо со своей семьей, но однажды во время террористической атаки теряет дочь и жену. Он чувствует свою вину в произошедшем и сильно страдает. От невыносимой боли он решает покончить с собой и неожиданно становится инициатором аварии, которая изменит всю его жизнь. В аварии сталкиваются четыре машины, четыре жизни, четыре человека… Кадир, Зейнеп, Джемре и Керем. Авария, про которую Кадир скажет: На самом деле столкнулись не наши машины, а судьбы, свяжет жизни этих четырех людей.

    Продолжительность: ~00: 45: 00 серия
    Качество видео: WEB-DLRip
    Перевод: Многоголосый профессиональный (Мобильное телевидение)
    Субтитры: Отсутствуют
    Видео: AVC/H.264, 1280x720, ~2570 kbps
    Аудио: AAC, 2 ch, 256 kbps - русский
    General
    Complete name : F: 1Stolknovenie.WEB-DLRip.720pStolknovenie.s01.e01.WEB-DLRip.720p.mp4
    Format : MPEG-4
    Format profile : Base Media
    Codec ID : isom (isom/iso2/avc1/mp41)
    File size : 919 MiB
    Duration : 45 min 33 s
    Overall bit rate : 2 820 kb/s
    Writing application : Lavf58.20.100
    Video
    ID : 1
    Format : AVC
    Format/Info : Advanced Video Codec
    Format profile : High@L4
    Format settings : CABAC/4 Ref Frames
    Format settings, CABAC : Yes
    Format settings, Reference fra : 4 frames
    Codec ID : avc1
    Codec ID/Info : Advanced Video Coding
    Duration : 45 min 33 s
    Bit rate : 2 569 kb/s
    Width : 1 280 pixels
    Height : 720 pixels
    Display aspect ratio : 16: 9
    Frame rate mode : Constant
    Frame rate : 25.000 FPS
    Color space : YUV
    Chroma subsampling : 4: 2: 0
    Bit depth : 8 bits
    Scan type : Progressive
    Bits/(Pixel*Frame) : 0.112
    Stream size : 834 MiB (91%)
    Writing library : x264 core 148
    Encoding settings : cabac=1/ref=3 /
    Codec configuration box : avcC
    Audio
    ID : 2
    Format : AAC LC
    Format/Info : Advanced Audio Codec Low Complexity
    Codec ID : mp4a-40-2
    Duration : 45 min 33 s
    Bit rate mode : Constant
    Bit rate : 256 kb/s
    Channel(s) : 2 channels
    Channel layout : L R
    Sampling rate : 48.0 kHz
    Frame rate : 46.875 FPS (1024 SPF)
    Compression mode : Lossy
    Stream size : 83.4 MiB (9%)
    Language : English
    Default : Yes
    Alternate group : 1
    Рейтинг →
     (голосов: 1, оценка 4/5, голосовать можно 1 раз )

    Другие торренты по теме:

  • Столкновение с бездной / Deep Impact (1998) BDRip [1080p]
  • Столкновение с бездной / Deep Impact (1998) BDRip [H.264 / 720р-LQ] скачать через торрент бесплатно
  • Столкновение / Сломя голову / Thrashin (1986) HDTV [H.264 / 1080i-LQ] скачать через торрент бесплатно
  • Ледниковый период: Столкновение неизбежно / Ice Age: Collision Course (2016) WEBRip [H.264 / 1080p] [Трейлер] скачать через торрент бесплатно
  • Ледниковый период: Столкновение неизбежно / Ice Age: Collision Course (2016) CAMRip
  • John Debney - Ice Age: Collision Course / Ледниковый период Столкновение неизбежно (Original Motion Picture Score) (2016) [MP3|320 кб / с]<Soundtrack>
  • John Debney - Ice Age: Collision Course / Ледниковый период Столкновение неизбежно (Original Motion Picture Score) (2016) [FLAC|Lossless|WEB-DL|tracks]<Soundtrack>
  • Ледниковый период: Столкновение неизбежно / Ice Age: Collision Course (2016) TS


    • Комментарии (0):

      Информация

      Информация

        Посетители, находящиеся в группе Гости, не могут оставлять комментарии в данной новости.