Подписывайся на наш канал в Telegram https://t.me/torrentok и получи доступ к торрентам без ограничений!
.
Авторизация | Регистрация
torrent123.club


Я тоже его люблю (2019) WEBRip [H.264] (серии 1-4 из 4) [MP4|1920x1080] торрент скачать бесплатно

Дата: 29-06-2020, 05:00 | .torrent скачали: 0

Я тоже его люблю (2019) WEBRip [H.264] (серии 1-4 из 4) [MP4|1920x1080]Производство: Украина/Фильмстрим и Vileton Films
Жанр: мелодрама
Режиссер: Вадим Саввиев
Актеры: Елена Полянская, Виктория Клинкова, Александр Соколовский, Елена Стефанская, Александр Гетманский, Александр Кобзарь, Андрей Мостренко, Алекс Степаненко, Константин Корецкий, Мария Хомутова

Описание

Ася давно и безнадежно влюблена в своего преподавателя Егора, но вынуждена смотреть как он женится на ее младшей сестре - фотомодели Алине. Однако день свадьбы Егора и Алины заканчивается бедой: Егор попадает под машину. Прогноз врачей неутешителен – скорее всего он никогда уже не сможет ходить. Привыкшая к роскошной жизни Алина не выдерживает трудностей и быстро сдается. Ася остается единственным человеком, который готов ухаживать за Егором. Но сможет ли он когда-нибудь полюбить ее?

Возраст: 12+ (зрителям, достигшим 12 лет)
Продолжительность: ~00: 45: 00 серия
Качество видео: WEBRip
Перевод: Не требуется (русский)
Субтитры: Отсутствуют
Видео: AVC/H.264, 1920x1080 (16: 9), ~2140 Kbps
Аудио: AAC, 2 ch, 128 Kbps
Общее
Полное имя : G: Я тоже его люблю (2019).Серии 1-4.mp4
Формат : MPEG-4
Профиль формата : Base Media
Идентификатор кодека : isom (isom/iso2/avc1/mp41)
Размер файла : 2, 84 Гбайт
Продолжительность : 2 ч. 59 м.
Режим общего битрейта : Переменный
Общий поток : 2 271 Кбит/сек
Дата кодирования : UTC 2020-06-23 12: 01: 01
Дата пометки : UTC 2020-06-23 12: 01: 01
Видео
Идентификатор : 1
Формат : AVC
Формат/Информация : Advanced Video Codec
Профиль формата : High@L4
Настройки формата : CABAC/3 Ref Frames
Параметр CABAC формата : Да
Параметр RefFrames формата : 3 кадра
Идентификатор кодека : avc1
Идентификатор кодека/Информация : Advanced Video Coding
Продолжительность : 2 ч. 59 м.
Битрейт : 2 140 Кбит/сек
Ширина : 1 920 пикселей
Высота : 1 080 пикселей
Соотношение сторон : 16: 9
Режим частоты кадров : Постоянный
Частота кадров : 25, 000 кадров/сек
Цветовое пространство : YUV
Субдискретизация насыщенности : 4: 2: 0
Битовая глубина : 8 бит
Тип развёртки : Прогрессивная
Бит/(Пиксели*Кадры) : 0.041
Размер потока : 2, 68 Гбайт (94%)
Заголовок : ISO Media file produced by Google Inc.
Дата кодирования : UTC 2020-06-23 12: 01: 01
Дата пометки : UTC 2020-06-23 12: 01: 01
Цветовой диапазон : Limited
Основные цвета : BT.709
Характеристики трансфера : BT.709
Коэффициенты матрицы : BT.709
Codec configuration box : avcC
Аудио
Идентификатор : 2
Формат : AAC LC
Формат/Информация : Advanced Audio Codec Low Complexity
Идентификатор кодека : mp4a-40-2
Продолжительность : 2 ч. 59 м.
Вид битрейта : Переменный
Битрейт : 128 Кбит/сек
Каналы : 2 канала
Channel layout : L R
Частота : 44, 1 КГц
Частота кадров : 43, 066 кадра/сек (1024 SPF)
Метод сжатия : С потерями
Размер потока : 164 Мбайт (6%)
Заголовок : ISO Media file produced by Google Inc.
Default : Да
Alternate group : 1
Дата кодирования : UTC 2020-06-23 12: 03: 07
Дата пометки : UTC 2020-06-23 12: 03: 07
Скриншоты:


Все одноименные релизы в Клубе
Время раздачи: 24/7 (круглосуточно) (до появления первых 3-5 скачавших)
Рейтинг →
 (голосов: 1, оценка 5/5, голосовать можно 1 раз )

Другие торренты по теме:

  • Я тебя люблю, я тоже не люблю / Je taime moi non plus (1976) DVDRip [VO]


    • Комментарии (0):

      Информация

      Информация

        Посетители, находящиеся в группе Гости, не могут оставлять комментарии в данной новости.