Подписывайся на наш канал в Telegram https://t.me/torrentok и получи доступ к торрентам без ограничений!
.
Авторизация | Регистрация
torrent123.club


ВАЛЛ·И / WALL·E (2008) BDRip [H.264 / 1080p-LQ] торрент скачать бесплатно

Дата: 25-06-2020, 05:00 | .torrent скачали: 0

ВАЛЛ·И / WALL·E (2008) BDRip [H.264 / 1080p-LQ]Производство: США/Walt Disney Pictures, Pixar Animation Studios
Жанр: мультфильм, фантастика, приключения, семейный
Режиссер: Эндрю Стэнтон

Описание

Робот ВАЛЛ·И из года в год прилежно трудится на опустевшей Земле, очищая нашу планету от гор мусора, которые оставили после себя улетевшие в космос люди. Он и не представляет, что совсем скоро произойдут невероятные события, благодаря которым он встретит друзей, поднимется к звездам и даже сумеет изменить к лучшему своих бывших хозяев, совсем позабывших родную Землю.

Возраст: 0+ (для любой зрительской аудитории)
Рейтинг MPAA: G (нет возрастных ограничений)
Продолжительность: 01: 38: 42
Качество видео: BDRip
Перевод: Дублированный, многоголосый профессиональный
Субтитры: отсутствуют
Видео: AVC/H.264, 1920x800, ~5680 kbps
Аудио 1: AC3, 6 ch, 640 kbps, Русский (DUB BD EUR)
Аудио 2: AC3, 6 ch, 448 kbps, Русский (MVO С.Р.И.)
Общее
Уникальный идентификатор : 172183874818443213251585857273055418124 (0x81896875A8E9B1A7BF93B054BEB8170C)
Полное имя : E: MULTWALL-E.2008.BDRip.1080p.mkv
Формат : Matroska
Версия формата : Version 4
Размер файла : 4, 67 Гбайт
Продолжительность : 1 ч. 38 м.
Общий поток : 6 770 Кбит/сек
Название фильма : WALL-E
Дата кодирования : UTC 2020-06-24 04: 17: 53
Программа кодирования : mkvmerge v8.2.0 (\'World of Adventure\') 64bit
Библиотека кодирования : libebml v1.3.1 + libmatroska v1.4.2
Видео
Идентификатор : 1
Формат : AVC
Формат/Информация : Advanced Video Codec
Профиль формата : High@L4.1
Настройки формата : CABAC/4 Ref Frames
Параметр CABAC формата : Да
Параметр RefFrames формата : 4 кадра
Идентификатор кодека : V_MPEG4/ISO/AVC
Продолжительность : 1 ч. 38 м.
Битрейт : 5 680 Кбит/сек
Ширина : 1 920 пикселей
Высота : 800 пикселей
Соотношение сторон : 2, 40: 1
Режим частоты кадров : Постоянный
Частота кадров : 23, 976 (24000/1001) кадра/сек
Цветовое пространство : YUV
Субдискретизация насыщенности : 4: 2: 0
Битовая глубина : 8 бит
Тип развёртки : Прогрессивная
Бит/(Пиксели*Кадры) : 0.154
Размер потока : 3, 92 Гбайт (84%)
Заголовок : WALL-E
Библиотека кодирования : x264 core 107 r1745 4785e8e
Настройки программы : cabac=1/ref=4/deblock=1: -1: -1/analyse=0x3: 0x133/me=tesa/subme=10/psy=1/psy_rd=1.00: 0.20/mixed_ref=1/me_range=32/chroma_me=1/trellis=2/8x8dct=1/cqm=0/deadzone=21, 11/fast_pskip=0/chroma_qp_offset=-3/threads=12/sliced_threads=0/nr=0/decimate=0/interlaced=0/constrained_intra=0/bframes=4/b_pyramid=2/b_adapt=2/b_bias=0/direct=3/weightb=1/open_gop=0/weightp=2/keyint=250/keyint_min=23/scenecut=40/intra_refresh=0/rc_lookahead=60/rc=2pass/mbtree=1/bitrate=5680/ratetol=1.0/qcomp=0.60/qpmin=10/qpmax=51/qpstep=4/cplxblur=20.0/qblur=0.5/ip_ratio=1.40/aq=1: 1.00
Язык : English
Default : Да
Forced : Нет
Аудио #1
Идентификатор : 2
Формат : AC-3
Формат/Информация : Audio Coding 3
Коммерческое название : Dolby Digital
Идентификатор кодека : A_AC3
Продолжительность : 1 ч. 38 м.
Вид битрейта : Постоянный
Битрейт : 640 Кбит/сек
Каналы : 6 каналов
Channel layout : L R C LFE Ls Rs
Частота : 48, 0 КГц
Частота кадров : 31, 250 кадров/сек (1536 SPF)
Метод сжатия : С потерями
Размер потока : 452 Мбайт (9%)
Заголовок : DUB BD EUR
Язык : Russian
Service kind : Complete Main
Default : Да
Forced : Нет
Аудио #2
Идентификатор : 3
Формат : AC-3
Формат/Информация : Audio Coding 3
Коммерческое название : Dolby Digital
Идентификатор кодека : A_AC3
Продолжительность : 1 ч. 38 м.
Вид битрейта : Постоянный
Битрейт : 448 Кбит/сек
Каналы : 6 каналов
Channel layout : L R C LFE Ls Rs
Частота : 48, 0 КГц
Частота кадров : 31, 250 кадров/сек (1536 SPF)
Метод сжатия : С потерями
Размер потока : 316 Мбайт (7%)
Заголовок : MVO С.Р.И.
Язык : Russian
Service kind : Complete Main
Default : Нет
Forced : Нет

Скриншоты для ознакомления



Все одноименные релизы в Клубе
Время раздачи: c 5 до 19 мск (до появления первых 3-5 скачавших)

Онлайн видео ВАЛЛ·И

Рейтинг →
 (голосов: 1, оценка 3/5, голосовать можно 1 раз )

Другие торренты по теме:

  • ВАЛЛ·И / WALL·E (2008) BDRip [720p]
  • ВАЛЛ·И / WALL·E (2008) BDRip [H.264]
  • ВАЛЛ·И / WALL·E (2008) BDRip [1080p]
  • ВАЛЛ·И / WALL·E (2008) BDRip
  • Thomas Newman and VA - ВАЛЛ-И / WALL-E (2008) [AAC|WEB-DL|256 кб / с]<Score> скачать через торрент бесплатно
  • ВАЛЛ-И / WALL-E (2008) [H.264 / 720p] [hand made 60fps] скачать через торрент бесплатно
  • ВАЛЛ·И / WALL·E (2008) BDRip скачать через торрент бесплатно
  • ВАЛЛ·И / WALL·E (2008) BDRip [H.264] скачать через торрент бесплатно


    • Комментарии (0):

      Информация

      Информация

        Посетители, находящиеся в группе Гости, не могут оставлять комментарии в данной новости.