Подписывайся на наш канал в Telegram https://t.me/torrentok и получи доступ к торрентам без ограничений!
.
Авторизация | Регистрация
torrent123.club
Торрент трекер | Скачать торрент | Скачать Через Торрент | Скачать торрент бесплатно | Скачать торрент без регистрации Мультфильмы торрент скачать Трое из Простоквашино / Каникулы в Простоквашино / Зима в Простоквашино (1978-1984) WEBRip [H.264 / 1080p-LQ] (3 серии) торрент скачать бесплатно


    Трое из Простоквашино / Каникулы в Простоквашино / Зима в Простоквашино (1978-1984) WEBRip [H.264 / 1080p-LQ] (3 серии) торрент скачать бесплатно

    Дата: 26-06-2020, 05:00 | .torrent скачали: 1

    Трое из Простоквашино / Каникулы в Простоквашино / Зима в Простоквашино (1978-1984) WEBRip [H.264 / 1080p-LQ] (3 серии)Производство: СССР/Союзмультфильм
    Жанр: Короткометражный, рисованная анимация, семейный
    Режиссер: Владимир Попов

    Актеры
    Мария Виноградова, Олег Табаков, Лев Дуров, Борис Новиков, Герман Качин, Валентина Талызина

    Описание

    Жил-был мальчик по прозвищу Дядя Федор. Он очень любил животных, но его родители и слышать ничего не хотели о том, чтобы в их квартире завелся кто-то хвостатый и лохматый. И пришлось Дяде Федору со своими новыми приятелями — котом Матроскиным и верным песиком Шариком — отправиться в деревню Простоквашино.


    Возраст: 6+ (зрителям, достигшим 6 лет)
    Продолжительность: 00: 17: 41 + 00: 17: 59 + 00: 15: 43
    Качество видео: WEBRip
    Субтитры: Отсутствуют
    Видео: AVC/H.264, 1920x1080 (16: 9), ~4215 Kbps
    Аудио: AC3, 2 ch, 256 Kbps
    Общее
    Уникальный идентификатор : 163448651419444582761839222243455930276 (0x7AF710B1DAB6776108F19B4788D00FA4)
    Полное имя : D: 1Простоквашино (1978-1984)Трое из Простоквашино (1978).mkv
    Формат : Matroska
    Версия формата : Version 4
    Размер файла : 566 Мбайт
    Продолжительность : 17 м. 41 с.
    Общий поток : 4 474 Кбит/сек
    Дата кодирования : UTC 2020-06-24 18: 50: 44
    Программа кодирования : mkvmerge v21.0.0 (\'Tardigrades Will Inherit The Earth\') 32-bit
    Библиотека кодирования : libebml v1.3.5 + libmatroska v1.4.8/Lavf58.12.100
    Видео
    Идентификатор : 1
    Формат : AVC
    Формат/Информация : Advanced Video Codec
    Профиль формата : High@L4
    Настройки формата : CABAC/4 Ref Frames
    Параметр CABAC формата : Да
    Параметр RefFrames формата : 4 кадра
    Идентификатор кодека : V_MPEG4/ISO/AVC
    Продолжительность : 17 м. 41 с.
    Битрейт : 4 216 Кбит/сек
    Номинальный битрейт : 5 000 Кбит/сек
    Ширина : 1 920 пикселей
    Высота : 1 080 пикселей
    Соотношение сторон : 16: 9
    Режим частоты кадров : Постоянный
    Частота кадров : 25, 000 кадров/сек
    Цветовое пространство : YUV
    Субдискретизация насыщенности : 4: 2: 0
    Битовая глубина : 8 бит
    Тип развёртки : Прогрессивная
    Бит/(Пиксели*Кадры) : 0.081
    Размер потока : 534 Мбайт (94%)
    Библиотека кодирования : x264 core 148 r2721 72d53ab
    Настройки программы : cabac=1/ref=4/deblock=1: 0: 0/analyse=0x3: 0x133/me=umh/subme=10/psy=1/psy_rd=1.00: 0.00/mixed_ref=1/me_range=24/chroma_me=1/trellis=2/8x8dct=1/cqm=0/deadzone=21, 11/fast_pskip=1/chroma_qp_offset=-2/threads=34/lookahead_threads=5/sliced_threads=0/nr=0/decimate=1/interlaced=0/bluray_compat=0/constrained_intra=0/bframes=8/b_pyramid=2/b_adapt=2/b_bias=0/direct=3/weightb=1/open_gop=0/weightp=2/keyint=100/keyint_min=50/scenecut=40/intra_refresh=0/rc_lookahead=60/rc=2pass/mbtree=1/bitrate=5000/ratetol=1.0/qcomp=0.60/qpmin=0/qpmax=69/qpstep=4/cplxblur=20.0/qblur=0.5/vbv_maxrate=5500/vbv_bufsize=920/nal_hrd=none/filler=0/ip_ratio=1.40/aq=1: 1.00
    Default : Да
    Forced : Нет
    Аудио
    Идентификатор : 2
    Формат : AC-3
    Формат/Информация : Audio Coding 3
    Коммерческое название : Dolby Digital
    Идентификатор кодека : A_AC3
    Продолжительность : 17 м. 41 с.
    Вид битрейта : Постоянный
    Битрейт : 256 Кбит/сек
    Каналы : 2 канала
    Channel layout : L R
    Частота : 48, 0 КГц
    Частота кадров : 31, 250 кадров/сек (1536 SPF)
    Метод сжатия : С потерями
    Задержка видео : -85 мс.
    Размер потока : 32, 4 Мбайт (6%)
    Service kind : Complete Main
    Default : Да
    Forced : Нет
    Общее
    Уникальный идентификатор : 90027645914658531872512214330059813731 (0x43BAB1A404BA52E877680EB47C947363)
    Полное имя : D: 1Простоквашино (1978-1984)Каникулы в Простоквашино (1980).mkv
    Формат : Matroska
    Версия формата : Version 4
    Размер файла : 574 Мбайт
    Продолжительность : 17 м. 59 с.
    Общий поток : 4 462 Кбит/сек
    Дата кодирования : UTC 2020-06-24 18: 50: 00
    Программа кодирования : mkvmerge v21.0.0 (\'Tardigrades Will Inherit The Earth\') 32-bit
    Библиотека кодирования : libebml v1.3.5 + libmatroska v1.4.8/Lavf58.12.100
    Видео
    Идентификатор : 1
    Формат : AVC
    Формат/Информация : Advanced Video Codec
    Профиль формата : High@L4
    Настройки формата : CABAC/4 Ref Frames
    Параметр CABAC формата : Да
    Параметр RefFrames формата : 4 кадра
    Идентификатор кодека : V_MPEG4/ISO/AVC
    Продолжительность : 17 м. 59 с.
    Битрейт : 4 204 Кбит/сек
    Номинальный битрейт : 5 000 Кбит/сек
    Ширина : 1 920 пикселей
    Высота : 1 080 пикселей
    Соотношение сторон : 16: 9
    Режим частоты кадров : Постоянный
    Частота кадров : 25, 000 кадров/сек
    Цветовое пространство : YUV
    Субдискретизация насыщенности : 4: 2: 0
    Битовая глубина : 8 бит
    Тип развёртки : Прогрессивная
    Бит/(Пиксели*Кадры) : 0.081
    Размер потока : 541 Мбайт (94%)
    Библиотека кодирования : x264 core 148 r2721 72d53ab
    Настройки программы : cabac=1/ref=4/deblock=1: 0: 0/analyse=0x3: 0x133/me=umh/subme=10/psy=1/psy_rd=1.00: 0.00/mixed_ref=1/me_range=24/chroma_me=1/trellis=2/8x8dct=1/cqm=0/deadzone=21, 11/fast_pskip=1/chroma_qp_offset=-2/threads=34/lookahead_threads=5/sliced_threads=0/nr=0/decimate=1/interlaced=0/bluray_compat=0/constrained_intra=0/bframes=8/b_pyramid=2/b_adapt=2/b_bias=0/direct=3/weightb=1/open_gop=0/weightp=2/keyint=100/keyint_min=50/scenecut=40/intra_refresh=0/rc_lookahead=60/rc=2pass/mbtree=1/bitrate=5000/ratetol=1.0/qcomp=0.60/qpmin=0/qpmax=69/qpstep=4/cplxblur=20.0/qblur=0.5/vbv_maxrate=5500/vbv_bufsize=920/nal_hrd=none/filler=0/ip_ratio=1.40/aq=1: 1.00
    Default : Да
    Forced : Нет
    Аудио
    Идентификатор : 2
    Формат : AC-3
    Формат/Информация : Audio Coding 3
    Коммерческое название : Dolby Digital
    Идентификатор кодека : A_AC3
    Продолжительность : 17 м. 59 с.
    Вид битрейта : Постоянный
    Битрейт : 256 Кбит/сек
    Каналы : 2 канала
    Channel layout : L R
    Частота : 48, 0 КГц
    Частота кадров : 31, 250 кадров/сек (1536 SPF)
    Метод сжатия : С потерями
    Задержка видео : -85 мс.
    Размер потока : 32, 9 Мбайт (6%)
    Service kind : Complete Main
    Default : Да
    Forced : Нет
    Общее
    Уникальный идентификатор : 221933443797447161964335475995470201625 (0xA6F6D395F74748ABC23600C072DC0319)
    Полное имя : D: 1Простоквашино (1978-1984)Зима в Простоквашино (1984).mkv
    Формат : Matroska
    Версия формата : Version 4
    Размер файла : 507 Мбайт
    Продолжительность : 15 м. 43 с.
    Общий поток : 4 505 Кбит/сек
    Дата кодирования : UTC 2020-06-24 18: 49: 19
    Программа кодирования : mkvmerge v21.0.0 (\'Tardigrades Will Inherit The Earth\') 32-bit
    Библиотека кодирования : libebml v1.3.5 + libmatroska v1.4.8/Lavf58.12.100
    Видео
    Идентификатор : 1
    Формат : AVC
    Формат/Информация : Advanced Video Codec
    Профиль формата : High@L4
    Настройки формата : CABAC/4 Ref Frames
    Параметр CABAC формата : Да
    Параметр RefFrames формата : 4 кадра
    Идентификатор кодека : V_MPEG4/ISO/AVC
    Продолжительность : 15 м. 43 с.
    Битрейт : 4 248 Кбит/сек
    Номинальный битрейт : 5 000 Кбит/сек
    Ширина : 1 920 пикселей
    Высота : 1 080 пикселей
    Соотношение сторон : 16: 9
    Режим частоты кадров : Постоянный
    Частота кадров : 25, 000 кадров/сек
    Цветовое пространство : YUV
    Субдискретизация насыщенности : 4: 2: 0
    Битовая глубина : 8 бит
    Тип развёртки : Прогрессивная
    Бит/(Пиксели*Кадры) : 0.082
    Размер потока : 478 Мбайт (94%)
    Библиотека кодирования : x264 core 148 r2721 72d53ab
    Настройки программы : cabac=1/ref=4/deblock=1: 0: 0/analyse=0x3: 0x133/me=umh/subme=10/psy=1/psy_rd=1.00: 0.00/mixed_ref=1/me_range=24/chroma_me=1/trellis=2/8x8dct=1/cqm=0/deadzone=21, 11/fast_pskip=1/chroma_qp_offset=-2/threads=34/lookahead_threads=5/sliced_threads=0/nr=0/decimate=1/interlaced=0/bluray_compat=0/constrained_intra=0/bframes=8/b_pyramid=2/b_adapt=2/b_bias=0/direct=3/weightb=1/open_gop=0/weightp=2/keyint=100/keyint_min=50/scenecut=40/intra_refresh=0/rc_lookahead=60/rc=2pass/mbtree=1/bitrate=5000/ratetol=1.0/qcomp=0.60/qpmin=0/qpmax=69/qpstep=4/cplxblur=20.0/qblur=0.5/vbv_maxrate=5500/vbv_bufsize=920/nal_hrd=none/filler=0/ip_ratio=1.40/aq=1: 1.00
    Default : Да
    Forced : Нет
    Аудио
    Идентификатор : 2
    Формат : AC-3
    Формат/Информация : Audio Coding 3
    Коммерческое название : Dolby Digital
    Идентификатор кодека : A_AC3
    Продолжительность : 15 м. 43 с.
    Вид битрейта : Постоянный
    Битрейт : 256 Кбит/сек
    Каналы : 2 канала
    Channel layout : L R
    Частота : 48, 0 КГц
    Частота кадров : 31, 250 кадров/сек (1536 SPF)
    Метод сжатия : С потерями
    Задержка видео : -85 мс.
    Размер потока : 28, 8 Мбайт (6%)
    Service kind : Complete Main
    Default : Да
    Forced : Нет

    Скриншоты для ознакомления



    Все одноименные релизы в Клубе
    Время раздачи: 24/7 (круглосуточно) (до появления первых 3-5 скачавших)

    Онлайн видео Трое из Простоквашино

    Рейтинг →
     (голосов: 1, оценка 5/5, голосовать можно 1 раз )

    Другие торренты по теме:

  • Трое из Простоквашино (3 серии) (1978-1984) BDRip [H.264] скачать через торрент бесплатно
  • Эдуард Успенский | Трое из Простоквашино (Дядя Фёдор, пёс и кот) (1977 / 2006) [WavPack] скачать через торрент бесплатно


    • Комментарии (0):

      Информация

      Информация

        Посетители, находящиеся в группе Гости, не могут оставлять комментарии в данной новости.