Подписывайся на наш канал в Telegram https://t.me/torrentok и получи доступ к торрентам без ограничений!
.
Авторизация | Регистрация
torrent123.club


Герой СамСам / SamSam (2019) WEB-DL [H.264 / 1080p-LQ] торрент скачать бесплатно

Дата: 27-06-2020, 05:00 | .torrent скачали: 0

Герой СамСам / SamSam (2019) WEB-DL [H.264 / 1080p-LQ]Производство: Франция, Canal+ fr, Ciné, Compagnie Cinématographique, La, Devtvcine 4
Жанр: Мультфильм
Режиссер: Танги де Кермель

Описание

СамПланета в опасности! На родную обитель знаменитого СамСама напали Мрачуны — инопланетные жуки, которые распространяют по всей Вселенной… грусть. Чтобы победить полчища Мрачунов, герою на помощь придет его давняя подруга по переписке с соседней планеты.

Возраст: 6+ (зрителям, достигшим 6 лет)
Дата мировой премьеры: 7 декабря 2019, ...
Цифровой релиз: 26 июня 2020, Вольга
Релиз от: seleZen
Продолжительность: 01: 17: 44
Качество видео: WEB-DL
Перевод: Дублированный (iTunes)
Субтитры: Русские (Full)
Видео: AVC/H.264, 1920x804, ~4510
Аудио: AC3, 6 ch, 384 Kbps - Русский
Общее
Уникальный идентификатор : 339632602051358632742062839088628281574 (0xFF82DC1E594D8479F745C932188AB0E6)
Полное имя : F: SamSam.2019.WEB-DL.1080p.seleZen.mkv
Формат : Matroska
Версия формата : Version 4
Размер файла : 2, 66 Гбайт
Продолжительность : 1 ч. 17 м.
Общий поток : 4896 Кбит/сек
Название фильма : SamSam 2019 from селезень
Дата кодирования : UTC 2020-06-26 10: 49: 34
Программа кодирования : mkvmerge v40.0.0 (\'Old Town Road + Pony\') 64-bit
Библиотека кодирования : libebml v1.3.9 + libmatroska v1.5.2
Видео
Идентификатор : 1
Формат : AVC
Формат/Информация : Advanced Video Codec
Профиль формата : High@L4
Настройки формата : CABAC/5 Ref Frames
Параметр CABAC формата : Да
Параметр RefFrames формата : 5 кадров
Идентификатор кодека : V_MPEG4/ISO/AVC
Продолжительность : 1 ч. 17 м.
Битрейт : 4510 Кбит/сек
Ширина : 1920 пикселей
Высота : 804 пикселя
Соотношение сторон : 2, 40: 1
Режим частоты кадров : Постоянный
Частота кадров : 24, 000 кадра/сек
Цветовое пространство : YUV
Субдискретизация насыщенности : 4: 2: 0
Битовая глубина : 8 бит
Тип развёртки : Прогрессивная
Бит/(Пиксели*Кадры) : 0.122
Размер потока : 2, 45 Гбайт (92%)
Язык : English
Default : Да
Forced : Нет
Цветовой диапазон : Limited
Основные цвета : BT.709
Характеристики трансфера : BT.709
Коэффициенты матрицы : BT.709
Аудио
Идентификатор : 2
Формат : AC-3
Формат/Информация : Audio Coding 3
Коммерческое название : Dolby Digital
Идентификатор кодека : A_AC3
Продолжительность : 1 ч. 17 м.
Вид битрейта : Постоянный
Битрейт : 384 Кбит/сек
Каналы : 6 каналов
ChannelLayout : L R C LFE Ls Rs
Частота : 48, 0 КГц
Частота кадров : 31, 250 кадров/сек (1536 SPF)
Битовая глубина : 16 бит
Метод сжатия : С потерями
Задержка видео : -42 мс.
Размер потока : 214 Мбайт (8%)
Заголовок : iTunes
Язык : Russian
ServiceKind/String : Complete Main
Default : Да
Forced : Да
Текст
Идентификатор : 3
Формат : UTF-8
Идентификатор кодека : S_TEXT/UTF8
Идентификатор кодека/Информация : UTF-8 Plain Text
Продолжительность : 1 ч. 16 м.
Битрейт : 103 бит/сек
ElementCount : 955
Размер потока : 57, 6 Кбайт (0%)
Заголовок : Full
Язык : Russian
Default : Нет
Forced : Нет
Меню
00: 00: 00.000 : en: Глава 1
00: 08: 02.541 : en: Глава 2
00: 16: 08.582 : en: Глава 3
00: 24: 30.332 : en: Глава 4
00: 32: 53.957 : en: Глава 5
00: 41: 00.623 : en: Глава 6
00: 49: 00.873 : en: Глава 7
00: 57: 18.914 : en: Глава 8
01: 05: 25.580 : en: Глава 9
01: 13: 22.121 : en: Глава 10

Скриншоты для ознакомления



Все одноименные релизы в Клубе
Время раздачи: 24/7 (мультитрекерная раздача)
Рейтинг →
 (голосов: 1, оценка 4/5, голосовать можно 1 раз )

Другие торренты по теме:

  • Последний Герой (американская версия) (сезон 29, выпуски 0-1 из ) / Survivor: San Juan del Sur — Blood vs. Water (Season 29) (2014) HDTV [EN] [обновляемая]
  • Yuuki Yuuna wa Yuusha de Aru / Yuuki Yuna is a Hero / Герой Юки Юна [2014, TV, 1 из >12] HDTV 720p Hi10p raw
  • Yuuki Yuuna wa Yuusha de Aru / Yuuki Yuna is a Hero / Герой Юки Юна (2014, TV, 3 из 12) HDTV 720p rus скачать через торрент бесплатно
  • Герой цветного города / The Hero of Color City (2014) BDRip [720p] [EN / EN Sub] скачать через торрент бесплатно
  • Yuuki Yuuna wa Yuusha de Aru / Yuuki Yuna is a Hero / Герой Юки Юна [2014, TV, 2 из 12] BDrip 1080p Hi10p raw скачать через торрент бесплатно
  • Николай Симонов. Герой не нашего времени (2011) SATRip
  • Кино - Последний герой (1989) / 1993, Moroz Records / [FLAC|Lossless]<Рок>
  • Последний Герой (американская версия) / Survivor: Worlds Apart (сезон 30, выпуск 1 из ) 2015 HDTV [H.264 / 720p][EN] скачать через торрент бесплатно


    • Комментарии (0):

      Информация

      Информация

        Посетители, находящиеся в группе Гости, не могут оставлять комментарии в данной новости.