Подписывайся на наш канал в Telegram https://t.me/torrentok и получи доступ к торрентам без ограничений!
.
Авторизация | Регистрация
torrent123.club
Торрент трекер | Скачать торрент | Скачать Через Торрент | Скачать торрент бесплатно | Скачать торрент без регистрации Мультфильмы торрент скачать Галерея современной анимации. Сборник мультфильмов. Выпуск 1-4 (1998-2009) DVDRemux торрент скачать бесплатно


    Галерея современной анимации. Сборник мультфильмов. Выпуск 1-4 (1998-2009) DVDRemux торрент скачать бесплатно

    Дата: 27-06-2020, 05:00 | .torrent скачали: 1

    Галерея современной анимации. Сборник мультфильмов. Выпуск 1-4 (1998-2009) DVDRemuxПроизводство: Россия, FAF Entertainment, АФ-Центр
    Жанр: Рисованная анимация, Приключения, Комедия, Для взрослых
    Режиссер: Андрей Ушаков, Михаил Тумеля и д.р.

    Описание
    Мультипликационные кукольные и рисованные фильмы для детей и взрослых.
    Возраст: 0+ (для любой зрительской аудитории)
    Релиз от: almikl ®
    Продолжительность: серия ~ 00: 06: 00
    Качество видео: DVDRemux
    Субтитры: отсутствуют
    Видео: MPEG-2, 720x576@768x576, ~9000 Kbps
    Аудио: AC3, 2 ch, 448 Kbps
    Общее
    Уникальный идентификатор : 4201382029785317449770497022540758274 (0x32928207FC71A05DBC8E0496C8DBD02)
    Полное имя : E01S01.Рыбак и его душа.2007.DVDRemux.almikl.nnmclub.mkv.mkv
    Формат : Matroska
    Версия формата : Version 2
    Размер файла : 702 Мбайт
    Продолжительность : 10 м. 17 с.
    Режим общего битрейта : Переменный
    Общий поток : 9 530 Кбит/сек
    Дата кодирования : UTC 2020-01-18 12: 15: 15
    Программа кодирования : MakeMKV v1.14.7 win(x64-release)
    Библиотека кодирования : libmakemkv v1.14.7 (1.3.5/1.4.7) win(x64-release)
    Видео
    Идентификатор : 1
    ID in the original source medium : 224 (0xE0)
    Формат : MPEG Video
    Версия формата : Version 2
    Профиль формата : Main@Main
    Настройки формата : CustomMatrix/BVOP
    Параметр BVOP формата : Да
    Параметр матрицы формата : Выборочная
    Параметр GOP формата : M=3, N=15
    Структура изображения : Frame
    Идентификатор кодека : V_MPEG2
    Идентификатор кодека/Информация : MPEG 1 or 2 Video
    Продолжительность : 10 м. 17 с.
    Вид битрейта : Переменный
    Битрейт : 9 112 Кбит/сек
    Ширина : 720 пикселей
    Высота : 576 пикселей
    Соотношение сторон : 4: 3
    Режим частоты кадров : Постоянный
    Частота кадров : 25, 000 кадров/сек
    Стандарт вещания : PAL
    Цветовое пространство : YUV
    Субдискретизация насыщенности : 4: 2: 0
    Битовая глубина : 8 бит
    Тип развёртки : Чересстрочная
    Порядок развёртки : Нижнее поле первое
    Метод сжатия : С потерями
    Бит/(Пиксели*Кадры) : 0.879
    Временной код первого кадра : 00: 00: 00: 00
    Оригинал временного кода : Group of pictures t_head
    GOP, открыто/закрыто : Открыто
    GOP, открыто/закрыто на первом кадре : Закрыто
    Размер потока : 669 Мбайт (95%)
    Язык : English
    Default : Нет
    Forced : Нет
    Носитель оригинала : DVD-Video
    Аудио
    Идентификатор : 2
    ID in the original source medium : 189 (0xBD)128 (0x80)
    Формат : AC-3
    Формат/Информация : Audio Coding 3
    Коммерческое название : Dolby Digital
    Идентификатор кодека : A_AC3
    Продолжительность : 10 м. 17 с.
    Вид битрейта : Постоянный
    Битрейт : 448 Кбит/сек
    Каналы : 2 канала
    Channel layout : L R
    Частота : 48, 0 КГц
    Частота кадров : 31, 250 кадров/сек (1536 SPF)
    Метод сжатия : С потерями
    Размер потока : 33, 0 Мбайт (5%)
    Заголовок : Stereo
    Язык : Russian
    Service kind : Complete Main
    Default : Да
    Forced : Нет
    Носитель оригинала : DVD-Video
    Рейтинг →
     (голосов: 1, оценка 3/5, голосовать можно 1 раз )

    Другие торренты по теме:

  • Галерея современной анимации. Сборник мультфильмов. Выпуск 1-4 (1998-2009) DVDRip [H.264]


    • Комментарии (0):

      Информация

      Информация

        Посетители, находящиеся в группе Гости, не могут оставлять комментарии в данной новости.