Подписывайся на наш канал в Telegram https://t.me/torrentok и получи доступ к торрентам без ограничений!
.
Авторизация | Регистрация
torrent123.club


Лимпопо (1939) TVRip [H.264] [hand made colored] торрент скачать бесплатно

Дата: 27-06-2020, 05:00 | .torrent скачали: 0

Лимпопо (1939) TVRip [H.264] [hand made colored]Производство: СССР, Союзмультфильм
Жанр: Детский, Рисованная анимация, Сказка, Фэнтези
Режиссер: Леонид Амальрик, Владимир Полковников

Описание

Мультипликационный фильм по одноименной сказке Корнея Чуковского о самоотверженном докторе Айболите, который преодолевая все препятствия, поехал в Африку лечить больных зверей.

Возраст: 0+ (для любой зрительской аудитории)
Продолжительность: 00: 12: 28
Качество видео: TVRip
Субтитры: отсутствуют
Видео: AVC/H.264, 512x384 (4: 3), ~2 595 Kbps
Аудио: AAC, 1 ch, 96 Kbps, 48KHz
General
Unique ID : 242886057275066054440952004313296239411 (0xB6BA27301F02E71BB2FBE0FAAA497B33)
Complete name : D: Torrent_DownloadLimpopo_1939_color_fin.mkv
Format : Matroska
Format version : Version 4
File size : 240 MiB
Duration : 12 min 28 s
Overall bit rate : 2 693 kb/s
Encoded date : UTC 2020-06-25 17: 11: 26
Writing application : mkvmerge v8.4.0 (\'A better way to fly\') 32bit
Writing library : libebml v1.3.1 + libmatroska v1.4.2
Video
ID : 1
Format : AVC
Format/Info : Advanced Video Codec
Format profile : Main@L2.1
Format settings : CABAC/3 Ref Frames
Format settings, CABAC : Yes
Format settings, Reference frames : 3 frames
Format settings, GOP : M=1, N=33
Codec ID : V_MPEG4/ISO/AVC
Duration : 12 min 28 s
Bit rate : 2 595 kb/s
Width : 512 pixels
Height : 384 pixels
Display aspect ratio : 4: 3
Frame rate mode : Constant
Frame rate : 25.000 FPS
Standard : PAL
Color space : YUV
Chroma subsampling : 4: 2: 0
Bit depth : 8 bits
Scan type : Progressive
Bits/(Pixel*Frame) : 0.528
Stream size : 232 MiB (96%)
Language : English
Default : Yes
Forced : No
Color range : Limited
Audio
ID : 2
Format : AAC LC
Format/Info : Advanced Audio Codec Low Complexity
Codec ID : A_AAC-2
Duration : 12 min 28 s
Bit rate : 96.0 kb/s
Channel(s) : 1 channel
Channel layout : C
Sampling rate : 48.0 kHz
Frame rate : 46.875 FPS (1024 SPF)
Compression mode : Lossy
Stream size : 8.57 MiB (4%)
Language : Russian
Default : Yes
Forced : No
Рейтинг →
 (голосов: 1, оценка 4/5, голосовать можно 1 раз )

Другие торренты по теме:



    Комментарии (0):

    Информация

    Информация

      Посетители, находящиеся в группе Гости, не могут оставлять комментарии в данной новости.