Подписывайся на наш канал в Telegram https://t.me/torrentok и получи доступ к торрентам без ограничений!
.
Авторизация | Регистрация
torrent123.club


Haibane Renmei | Союз Серокрылых [2002, TV, 13 ep] BDRip 1080p 10-bit raw+rus торрент скачать бесплатно

Дата: 27-06-2020, 05:00 | .torrent скачали: 0

Haibane Renmei | Союз Серокрылых [2002, TV, 13 ep] BDRip 1080p 10-bit raw+rusТип: TV
Жанр: Повседневность, Фэнтези, Драма
Продолжительность: 13 Эпизодов по 23 Мин
Количество серий: 13 Эпизодов
Дата выпуска: c10.10.2002 по19.12.2002
Автор оригинала: Абэ Ёситоси
Режиссер: Токоро Томокадзу
Производство: Radix, Япония

World-Art | AniDB | MyAnimelist | Shikimori

Описание

Сон о падении с неба... а после — рождение. Главная героиня без имени появляется на свет из большого кокона в каком-то старом доме и сразу же встречает группу женщин с маленькими крыльями за спиной и сияющими нимбами над головой. Чуть позже ей дают имя — Ракка из-за сна, который та видела перед рождением. Вскоре у неё прорезаются собственные крылья, и она получает свой нимб. Некоторое время спустя девушке рассказывают, что та должна работать в соседнем городе под названием Гури. Вскоре Ракка понимает, что Гури ограждён от остального мира высокой непроходимой стеной, и никто, кроме таинственных Плащей, не имеет права его покинуть. Так героиня начинает свою жизнь в этом мире, став одной из Союза Серокрылых.
Автор: Eleven Zwolf ©Shikimori
Видео Сэмпл: Скачать сЯндекс.Диск
Рип: ANK-Raws
Качество Видео: BDRip
Видео: AVC / x264 , 1920x1080, 23.976 fps, 8 351 kb/s, 0.134 bpp 10-bit
Язык Озвучки: Японский и Русский
Озвучка: Дублированная
Аудио №1: AC35.1 , 48.0 kHz, 448 kb/s( Reanimedia ) |Язык:
Аудио №2: FLAC2.0 , 48.0 kHz, 509 kb/s 16-Bit( Original ) |Язык:
Субтитры: Надписи, Полные( REC ) , ( Tenkose ) , ( DnK )
Скриншоты:






Качайте сэмпл для оценки качества видео. Если не устраивает данный вариант, то попробуйте вариантMoozzi2с фильтрами.
Выбирал из 7-и кандидатов. В финале, выбор стоял междуANK-Raws иMoozzi2 . У второго рипера картинка была чуть более чёткая на общих планах, но слишком много шумов в цвете при близких ракурсах на персонажах/объектах. УANK `а прямо противоположная ситуация. В итоге выбрал всё-таки ANK-Raws.
Следует сделать скидку на то, что сам исходник был и есть полная дрянь. Необходим ремастер сериала...
Так-же рекомендую включить видео-рендерmadVR инастроить(Google Search, если не устраивает предложенный ресурс) его должным образом. Пусть немного, но это хоть как-то увеличит качество картинки.
PS: MadVR , кстати, очень требователен к мощности видеокарты. Учтите это, при подборе настроек.
01 . Cocoon, Dream of Falling from the Sky, Old Home (Кокон, Сон о падении с неба, Старый Дом)
02 . Town and Wall, Toga, Haibane-Renmei (Город и стена, Плащи, Союз Серокрылых)
03 . Temple, Communicator, Pancakes (Храм, Переговорщик, Булочки)
04 . Trash Day, Clock Tower, Birds Flying over the Walls (День мусора, Часовая башня, Птицы, которые летают за стену)
05 . Library, Abandoned Factory, The Beginning of the World (Библиотека, Заброшенная фабрика, Рождение мира)
06 . End of Summer, Rain, Loss (Конец лета, Дождь, Утрата)
07 . Scar, Illness, Arrival of Winter (Шрам, Болезнь, Приход зимы)
08 . The Bird (Птица)
09 . Well, Rebirth, Riddle (Колодец, Возвращение к жизни, Загадка)
10 . Kuramori, Haibane of Abandoned Factory, Rakka`s Job (Курамори, Серокрылые с заброшенной фабрики, Работа Ракки)
11 . Parting, Darkness in the Heart, Irreplaceable Thing (Разлука, Тьма в сердце, То, что ничем не заменишь)
12 . Bell Nuts, Passing of the Year Festival, Reconciliation (Орешки-колокольчики, Фестиваль проводов года, Примирение)
13 . Reki`s World, Prayer, Epilogue (Мир Рэки, Молитва, Последняя глава)


General
Unique ID : 210694843244612464997477452785317761188 (0x9E8259CC470AAF0B50AF9DD48056D0A4)
Complete name : D: 1 (Haibane Renmei). Cocoon, Dream of Falling from the Sky, Old Home (Кокон, Сон о падении с неба, Старый Дом).mkv
Format : Matroska
Format version : Version 4
File size : 1.49 GiB
Duration : 23 min 12 s
Overall bit rate mode : Variable
Overall bit rate : 9 216 kb/s
Encoded date : UTC 2020-06-26 04: 36: 07
Writing application : mkvmerge v47.0.0 (\'Black Flag\') 64-bit
Writing library : libebml v1.3.10 + libmatroska v1.5.2
Video
ID : 1
Format : AVC
Format/Info : Advanced Video Codec
Format profile : High 10@L5
Format settings : CABAC/10 Ref Frames
Format settings, CABAC : Yes
Format settings, Reference : 10 frames
Codec ID : V_MPEG4/ISO/AVC
Duration : 22 min 58 s
Bit rate : 8 350 kb/s
Width : 1 920 pixels
Height : 1 080 pixels
Display aspect ratio : 16: 9
Frame rate mode : Constant
Frame rate : 29.970 (30000/1001) FPS
Color space : YUV
Chroma subsampling : 4: 2: 0
Bit depth : 10 bits
Scan type : Progressive
Bits/(Pixel*Frame) : 0.134
Stream size : 1.34 GiB (90%)
Writing library : x264 core 125 r2200+666+30 20c70fc tMod 10-bit@4: 2: 0 X86
Encoding settings : cabac=1/ref=10/deblock=1: -2: -2/analyse=0x3: 0x133/me=umh/subme=11/psy=1/fade_compensate=0.00/psy_rd=0.60: 0.00/mixed_ref=1/me_range=48/chroma_me=1/trellis=2/8x8dct=1/cqm=0/deadzone=21, 11/fast_pskip=1/chroma_qp_offset=-2/threads=18/lookahead_threads=3/sliced_threads=0/nr=0/decimate=1/interlaced=0/bluray_compat=0/constrained_intra=0/fgo=0/bframes=8/b_pyramid=2/b_adapt=2/b_bias=0/direct=3/weightb=1/open_gop=0/weightp=2/keyint=500/keyint_min=1/scenecut=40/intra_refresh=0/rc=crf/mbtree=0/crf=18.0000/qcomp=0.60/qpmin=8/qpmax=38/qpstep=4/ip_ratio=1.40/pb_ratio=1.30/aq=3: 1.00
Language : Japanese
Default : Yes
Forced : No
Color range : Limited
Color primaries : BT.709
Transfer characteristics : BT.709
Matrix coefficients : BT.709
Audio #1
ID : 2
Format : AC-3
Format/Info : Audio Coding 3
Commercial name : Dolby Digital
Codec ID : A_AC3
Duration : 22 min 58 s
Bit rate mode : Constant
Bit rate : 448 kb/s
Channel(s) : 6 channels
Channel layout : L R C LFE Ls Rs
Sampling rate : 48.0 kHz
Frame rate : 31.250 FPS (1536 SPF)
Compression mode : Lossy
Stream size : 73.6 MiB (5%)
Title : Reanimedia
Language : Russian
Service kind : Complete Main
Default : Yes
Forced : No
Audio #2
ID : 3
Format : FLAC
Format/Info : Free Lossless Audio Codec
Codec ID : A_FLAC
Duration : 22 min 58 s
Bit rate mode : Variable
Bit rate : 509 kb/s
Channel(s) : 2 channels
Channel layout : L R
Sampling rate : 48.0 kHz
Frame rate : 11.719 FPS (4096 SPF)
Bit depth : 16 bits
Compression mode : Lossless
Stream size : 83.6 MiB (5%)
Title : Original 2.0
Writing library : libFLAC 1.2.1 (UTC 2007-09-17)
Language : Japanese
Default : No
Forced : No
Text #1
ID : 4
Format : ASS
Codec ID : S_TEXT/ASS
Codec ID/Info : Advanced Sub Station Alpha
Duration : 22 min 54 s
Bit rate : 54 b/s
Count of elements : 88
Compression mode : Lossless
Stream size : 9.14 KiB (0%)
Title : Forced Tenkose V2
Language : Russian
Default : Yes
Forced : No
Text #2
ID : 5
Format : ASS
Codec ID : S_TEXT/ASS
Codec ID/Info : Advanced Sub Station Alpha
Duration : 22 min 51 s
Bit rate : 8 b/s
Count of elements : 19
Compression mode : Lossless
Stream size : 1.44 KiB (0%)
Title : Forced DnK
Language : Russian
Default : No
Forced : No
Text #3
ID : 6
Format : ASS
Codec ID : S_TEXT/ASS
Codec ID/Info : Advanced Sub Station Alpha
Duration : 22 min 54 s
Bit rate : 157 b/s
Count of elements : 331
Compression mode : Lossless
Stream size : 26.4 KiB (0%)
Title : Full Tenkose V2
Language : Russian
Default : No
Forced : No
Text #4
ID : 7
Format : ASS
Codec ID : S_TEXT/ASS
Codec ID/Info : Advanced Sub Station Alpha
Duration : 23 min 10 s
Bit rate : 175 b/s
Count of elements : 338
Compression mode : Lossless
Stream size : 29.7 KiB (0%)
Title : Full Tenkose V1
Language : Russian
Default : No
Forced : No
Text #5
ID : 8
Format : ASS
Codec ID : S_TEXT/ASS
Codec ID/Info : Advanced Sub Station Alpha
Duration : 22 min 29 s
Bit rate : 145 b/s
Count of elements : 297
Compression mode : Lossless
Stream size : 24.0 KiB (0%)
Title : Full REC
Language : Russian
Default : No
Forced : No
Text #6
ID : 9
Format : ASS
Codec ID : S_TEXT/ASS
Codec ID/Info : Advanced Sub Station Alpha
Duration : 22 min 51 s
Bit rate : 114 b/s
Count of elements : 279
Compression mode : Lossless
Stream size : 19.1 KiB (0%)
Title : Full DnK
Language : Russian
Default : No
Forced : No
Menu
00: 00: 00.000 : : Chapter 01
00: 01: 43.036 : : Chapter 02
00: 21: 34.760 : : Chapter 03

Время раздачи: С 8: 00 по 18: 00 МСК (до появления первых 3-5 скачавших)
Понравился релиз? Ставь Оценку и нажми Спасибо
Это серьёзно меня мотивирует делать подобные релизы.
Если всем сердцем любишь аниме - подключайся и оставайся на раздаче максимально долго! Мои Релизы
За ретайминг звука и субтитров огромное спасибо DS2902
Полный список ретаймов
Рейтинг →
 (голосов: 1, оценка 4/5, голосовать можно 1 раз )

Другие торренты по теме:



    Комментарии (0):

    Информация

    Информация

      Посетители, находящиеся в группе Гости, не могут оставлять комментарии в данной новости.