Подписывайся на наш канал в Telegram https://t.me/torrentok и получи доступ к торрентам без ограничений!
.
Авторизация | Регистрация
torrent123.club


Лгунишка (1941) TVRip [H.264] [hand made colored] торрент скачать бесплатно

Дата: 28-06-2020, 05:00 | .torrent скачали: 0

Лгунишка (1941) TVRip [H.264] [hand made colored]Производство: СССР, Союзмультфильм
Жанр: Детский, Рисованная анимация, Сказка
Режиссер: Иван Иванов-Вано

Описание

Об утенке-лгунишке, наказанном мамой за невыученные уроки.

Возраст: 0+ (для любой зрительской аудитории)
Продолжительность: 00: 11: 28
Качество видео: TVRip
Субтитры: отсутствуют
Видео: AVC/H.264, 600x448 (4: 3), ~2069 Kbps
Аудио: AAC, 1 ch, 96 Kbps, 48.0 KHz
General
Unique ID : 180854831554144745377230488143395835138 (0x880F5FA2226416AE94553E9F89F04D02)
Complete name : D: Torrent_DownloadLgunishka_1941_color_fin.mkv
Format : Matroska
Format version : Version 4
File size : 178 MiB
Duration : 11 min 28 s
Overall bit rate : 2 167 kb/s
Encoded date : UTC 2020-06-27 02: 57: 31
Writing application : mkvmerge v8.4.0 (\'A better way to fly\') 32bit
Writing library : libebml v1.3.1 + libmatroska v1.4.2
Video
ID : 1
Format : AVC
Format/Info : Advanced Video Codec
Format profile : Main@L3
Format settings : CABAC/3 Ref Frames
Format settings, CABAC : Yes
Format settings, Reference frames : 3 frames
Format settings, GOP : M=1, N=33
Codec ID : V_MPEG4/ISO/AVC
Duration : 11 min 28 s
Bit rate : 2 069 kb/s
Width : 600 pixels
Height : 448 pixels
Display aspect ratio : 4: 3
Frame rate mode : Constant
Frame rate : 25.000 FPS
Standard : PAL
Color space : YUV
Chroma subsampling : 4: 2: 0
Bit depth : 8 bits
Scan type : Progressive
Bits/(Pixel*Frame) : 0.308
Stream size : 170 MiB (95%)
Language : English
Default : Yes
Forced : No
Color range : Limited
Audio
ID : 2
Format : AAC LC
Format/Info : Advanced Audio Codec Low Complexity
Codec ID : A_AAC-2
Duration : 11 min 28 s
Bit rate : 96.0 kb/s
Channel(s) : 1 channel
Channel layout : C
Sampling rate : 48.0 kHz
Frame rate : 46.875 FPS (1024 SPF)
Compression mode : Lossy
Stream size : 7.89 MiB (4%)
Language : Russian
Default : Yes
Forced : No
Рейтинг →
 (голосов: 1, оценка 5/5, голосовать можно 1 раз )

Другие торренты по теме:



    Комментарии (0):

    Информация

    Информация

      Посетители, находящиеся в группе Гости, не могут оставлять комментарии в данной новости.