Подписывайся на наш канал в Telegram https://t.me/torrentok и получи доступ к торрентам без ограничений!
.
Авторизация | Регистрация
torrent123.club
Торрент трекер | Скачать торрент | Скачать Через Торрент | Скачать торрент бесплатно | Скачать торрент без регистрации Мультфильмы торрент скачать Sora no Otoshimono Final: Eternal My Master | Утраченное Небесами: Мой Хозяин Навсегда [2014, Movie] BDRip 1080p 10-bit raw+rus торрент скачать бесплатно


    Sora no Otoshimono Final: Eternal My Master | Утраченное Небесами: Мой Хозяин Навсегда [2014, Movie] BDRip 1080p 10-bit raw+rus торрент скачать бесплатно

    Дата: 28-06-2020, 05:00 | .torrent скачали: 0

    Sora no Otoshimono Final: Eternal My Master | Утраченное Небесами: Мой Хозяин Навсегда [2014, Movie] BDRip 1080p 10-bit raw+rusТип: Movie
    Жанр: Комедия, Этти
    Продолжительность: 00: 50: 28
    Дата выпуска: 26.04.2014
    Автор оригинала: Минадзуки Суу
    Режиссер: Сайто Хисаси
    Производство: Production IMS, Япония

    World-Art | AniDB | MyAnimelist | Shikimori

    Описание

    Второй фильм дилогии, завершающий историю Томоки Сакурая, его друзей и ангелоидов.
    Автор: laitqwerty ©Shikimori
    Видео Сэмпл: Скачать сЯндекс.Диск
    Качество Видео: BDRip
    Видео: AVC / x264 , 1920x1080, 23.976 fps, 3 437 kb/s, 0.069 bpp 10-bit
    Язык Озвучки: Японский и Русский
    Озвучка: Одноголосая, Многоголосая закадровая
    Аудио №1: AAC2.0 , 48.0 kHz, 192 kb/s( AniDub ) |Язык:
    Аудио №2: AC32.0 , 48.0 kHz, 192 kb/s( Shiza Project ) |Язык:
    Аудио №3: FLAC2.0 , 48.0 kHz, 1 080 kb/s 24-Bit( Original ) |Язык:
    Субтитры: Надписи, Полные( Timecraft/SovetRomantica )
    Скриншоты:





    1) Sora no Otoshimono TV-1
    2) Sora no Otoshimono: Project Pink Tougenkyou OVA
    3) Sora no Otoshimono Forte TV-2
    4) Sora no Otoshimono: Tokei Jikake no Angeloid Movie
    5) Sora no Otoshimono Final: Eternal My Master Movie(Эта Раздача)


    General
    Unique ID : 170772921525031778406390061150695098295 (0x8079AB176231E9584D518B0559B487B7)
    Complete name : J: АнимеУтраченное Небесами (Sora no Otoshimono) BDRip (2009-2014)Sora no Otoshimono Movie27 (Sora no Otoshimono Movie) 02. Sora no Otoshimono. Final Eternal My Master (Утраченное Небесами. Мой Хозяин Навсегда).mkv
    Format : Matroska
    Format version : Version 4
    File size : 1.73 GiB
    Duration : 50 min 28 s
    Overall bit rate mode : Variable
    Overall bit rate : 4 904 kb/s
    Encoded date : UTC 2020-06-27 08: 29: 38
    Writing application : mkvmerge v47.0.0 (\'Black Flag\') 64-bit
    Writing library : libebml v1.3.10 + libmatroska v1.5.2
    Video
    ID : 1
    Format : AVC
    Format/Info : Advanced Video Codec
    Format profile : High10@L5.1
    Format settings : CABAC/14 Ref Frames
    Format settings, CABAC : Yes
    Format settings, Reference : 14 frames
    Codec ID : V_MPEG4/ISO/AVC
    Duration : 50 min 28 s
    Bit rate : 3 437 kb/s
    Width : 1 920 pixels
    Height : 1 080 pixels
    Display aspect ratio : 16: 9
    Frame rate mode : Constant
    Frame rate : 23.976 (24000/1001) FPS
    Color space : YUV
    Chroma subsampling : 4: 2: 0
    Bit depth : 10 bits
    Scan type : Progressive
    Bits/(Pixel*Frame) : 0.069
    Stream size : 1.21 GiB (70%)
    Writing library : x264 core 142 r2409+42 04be48a tMod 10-bit@4: 2: 0 X86_64
    Encoding settings : cabac=1/ref=14/deblock=1: -2: -2/analyse=0x3: 0x133/me=umh/subme=11/psy=1/fade_compensate=0.00/psy_rd=0.60: 0.00/mixed_ref=1/me_range=24/chroma_me=1/trellis=2/8x8dct=1/cqm=0/deadzone=21, 11/fast_pskip=1/chroma_qp_offset=-2/threads=18/lookahead_threads=3/sliced_threads=0/nr=0/decimate=1/interlaced=0/bluray_compat=0/constrained_intra=0/fgo=0/bframes=8/b_pyramid=2/b_adapt=2/b_bias=0/direct=3/weightb=1/open_gop=0/weightp=2/keyint=500/keyint_min=1/scenecut=40/intra_refresh=0/rc=crf/mbtree=0/crf=17.0000/qcomp=0.60/qpmin=8: 8: 8/qpmax=32: 32: 32/qpstep=4/ip_ratio=1.40/pb_ratio=1.30/aq=4: 0.80/aq-sensitivity=10.00/aq-factor=1.00: 1.00: 1.00/aq2=0/aq3=0
    Language : Japanese
    Default : Yes
    Forced : No
    Color range : Limited
    Matrix coefficients : BT.709
    Audio #1
    ID : 2
    Format : AAC LC
    Format/Info : Advanced Audio Codec Low Complexity
    Codec ID : A_AAC-2
    Duration : 50 min 25 s
    Bit rate : 192 kb/s
    Channel(s) : 2 channels
    Channel layout : L R
    Sampling rate : 48.0 kHz
    Frame rate : 46.875 FPS (1024 SPF)
    Compression mode : Lossy
    Delay relative to video : 1 s 78 ms
    Stream size : 68.5 MiB (4%)
    Title : AniDub Cuba77
    Language : Russian
    Default : No
    Forced : No
    Audio #2
    ID : 3
    Format : AC-3
    Format/Info : Audio Coding 3
    Commercial name : Dolby Digital
    Codec ID : A_AC3
    Duration : 50 min 15 s
    Bit rate mode : Constant
    Bit rate : 192 kb/s
    Channel(s) : 2 channels
    Channel layout : L R
    Sampling rate : 48.0 kHz
    Frame rate : 31.250 FPS (1536 SPF)
    Compression mode : Lossy
    Stream size : 69.0 MiB (4%)
    Title : Shiza Project Snowly, Chigusa, Hekomi, Лизавета
    Language : Russian
    Service kind : Complete Main
    Default : Yes
    Forced : No
    Audio #3
    ID : 4
    Format : FLAC
    Format/Info : Free Lossless Audio Codec
    Codec ID : A_FLAC
    Duration : 50 min 28 s
    Bit rate mode : Variable
    Bit rate : 1 080 kb/s
    Channel(s) : 2 channels
    Channel layout : L R
    Sampling rate : 48.0 kHz
    Frame rate : 11.719 FPS (4096 SPF)
    Bit depth : 24 bits
    Detected bit depth : 20 bits
    Compression mode : Lossless
    Stream size : 390 MiB (22%)
    Title : Original
    Writing library : libFLAC 1.3.0 (UTC 2013-05-26)
    Language : Japanese
    Default : No
    Forced : No
    Text #1
    ID : 5
    Format : ASS
    Codec ID : S_TEXT/ASS
    Codec ID/Info : Advanced Sub Station Alpha
    Duration : 41 min 24 s
    Bit rate : 289 b/s
    Count of elements : 337
    Compression mode : Lossless
    Stream size : 87.9 KiB (0%)
    Title : Forced Timecraft
    Language : Russian
    Default : Yes
    Forced : No
    Text #2
    ID : 6
    Format : ASS
    Codec ID : S_TEXT/ASS
    Codec ID/Info : Advanced Sub Station Alpha
    Duration : 45 min 57 s
    Bit rate : 412 b/s
    Count of elements : 1109
    Compression mode : Lossless
    Stream size : 139 KiB (0%)
    Title : Full Timecraft
    Language : Russian
    Default : No
    Forced : No
    Text #3
    ID : 7
    Format : ASS
    Codec ID : S_TEXT/ASS
    Codec ID/Info : Advanced Sub Station Alpha
    Duration : 50 min 4 s
    Bit rate : 1 071 b/s
    Count of elements : 3061
    Compression mode : Lossless
    Stream size : 393 KiB (0%)
    Title : Full Sovet Romantica
    Language : Russian
    Default : No
    Forced : No
    Menu
    00: 00: 00.000 : : Chapter 01
    00: 05: 36.336 : : Chapter 02
    00: 08: 01.022 : : Chapter 03
    00: 12: 07.017 : : Chapter 04
    00: 16: 24.775 : : Chapter 05
    00: 26: 31.798 : : Chapter 06
    00: 34: 08.296 : : Chapter 07
    00: 35: 37.385 : : Chapter 08
    00: 41: 36.994 : : Chapter 09
    00: 45: 03.033 : : Chapter 10
    00: 46: 41.089 : : Chapter 11
    00: 50: 26.023 : : Chapter 12

    Время раздачи: С 8: 00 по 18: 00 МСК (до появления первых 3-5 скачавших)
    Понравился релиз? Ставь Оценку и нажми Спасибо
    Это серьёзно меня мотивирует делать подобные релизы.
    Если всем сердцем любишь аниме - подключайся и оставайся на раздаче максимально долго! Мои Релизы
    За ретайминг звука и субтитров огромное спасибо DS2902
    Полный список ретаймов
    Рейтинг →
     (голосов: 1, оценка 5/5, голосовать можно 1 раз )

    Другие торренты по теме:

  • Sora no Otoshimono Final: Eternal My Master / Падшая с небес: Вечный хозяин (фильм второй) [2014, MV] BDrip 720p rus
  • Sora no Otoshimono: Forte | Утраченное Небесами: Сильнейшая [TV-2] [2010, TV, 12 ep] BDRip 1080p raw+rus
  • Sora no Otoshimono: Tokeijikake no Angeloid | Утраченное Небесами: Ангелоид Времени [2011, Movie] BDRip 1080p 10-bit raw+rus
  • Sora no Otoshimono | Утраченное Небесами [TV-1] [2009, TV, 13 ep + 1 OVA] BDRip 1080p raw+rus


    • Комментарии (0):

      Информация

      Информация

        Посетители, находящиеся в группе Гости, не могут оставлять комментарии в данной новости.