Подписывайся на наш канал в Telegram https://t.me/torrentok и получи доступ к торрентам без ограничений!
.
Авторизация | Регистрация
torrent123.club
Торрент трекер | Скачать торрент | Скачать Через Торрент | Скачать торрент бесплатно | Скачать торрент без регистрации Мультфильмы торрент скачать Sora no Otoshimono: Forte | Утраченное Небесами: Сильнейшая [TV-2] [2010, TV, 12 ep] BDRip 1080p raw+rus торрент скачать бесплатно


    Sora no Otoshimono: Forte | Утраченное Небесами: Сильнейшая [TV-2] [2010, TV, 12 ep] BDRip 1080p raw+rus торрент скачать бесплатно

    Дата: 28-06-2020, 05:00 | .torrent скачали: 0

    Sora no Otoshimono: Forte | Утраченное Небесами: Сильнейшая [TV-2] [2010, TV, 12 ep] BDRip 1080p raw+rusТип: TV
    Жанр: Комедия, Романтика, Этти
    Продолжительность: 12 Эпизодов по 23 Мин
    Количество серий: 12 Эпизодов
    Дата выпуска: 02.10.2010 по18.12.2010
    Автор оригинала: Минадзуки Суу
    Режиссер: Сайто Хисаси
    Производство: AIC, Япония

    World-Art | AniDB | MyAnimelist | Shikimori

    Описание

    Постепенно Томоки Сакурай привыкает к жизни с двумя ангелоидами, Икар и Нимфой, однако он по-прежнему видит странные сны и, в конце концов, просит своих друзей помочь ему разобраться с этим.
    Нимфа призывает устройство, позволяющее людям (но не ангелоидам) проникать в чужие сны. Хотя поначалу устройство не срабатывает, впоследствии они всё же попадают в сон Томоки, и с этим сном оказывается что-то определённо не так.
    Через некоторое время, рядом с большим деревом сакуры, около которого Томоки впервые встретил Икар, падает метеорит. И на месте падения появляется фигуристая блондинка-ангелоид с огромным мечом, которая тут же отправляется на поиски Томоки.
    Автор: Justin Bailey ©Shikimori
    Видео Сэмпл: Скачать сЯндекс.Диск
    Наличие цензуры: Да (Смотрите сэмплы для ознакомления)
    Качество Видео: BDRip
    Видео: AVC / x264 , 1920x1080, 23.976 fps, 12.3 Mb/s, 0.247 bpp 8-bit
    Язык Озвучки: Японский и Русский
    Озвучка: Одноголосая, Двухголосая, Многоголосая закадровая
    Аудио №1: AAC2.0 , 48.0 kHz, 192 kb/s( AniMedia ) |Язык:
    Аудио №2: AC32.0 , 48.0 kHz, 192 kb/s( OpenDub ) |Язык:
    Аудио №3: AAC2.0 , 48.0 kHz, 192 kb/s( GetSmart Group ) |Язык:
    Аудио №4: AAC2.0 , 48.0 kHz, 384 kb/s( AniDub ) |Язык:
    Аудио №5: FLAC2.0 , 48.0 kHz, 1 535 kb/s 24-Bit( Original ) |Язык:
    Субтитры: Надписи, Полные( Stan WarHammer Kain )
    Скриншоты:





    01 . You Strip Too! The King is Back (Долой одежду! Голый король снова в деле)
    02 . Surprise! The Angel`s a Huge Breasted Idiot!! (Шок! Ангел с большой грудью)
    03 . A Fight with Pride (Битва с гордостью)
    04 . To the Death! The Bath Battle at -1.4 C (До самого конца! Битва на горячих источниках при -1.4°C)
    05 . A Friend and a Super-sibling from the Heavens (Друг и родственник с Небес)
    06 . Make up Your Mind! Heaven and Hell. Up and Down (Умницы и умник! Верх и низ)
    07 . Tomoki Devours Watermelons (Томоки и арбузы)
    08 . The Voices of the Songstresses and the Angels Echo Through the Sky (Звуки ангелов, донёсшиеся с Небес)
    09 . A Fierce Fight! Fishing at a Carnival of Dreams... (Ожесточенная борьба! Рыбалка на фестивале)
    10 . Looking Through the Keyhole to the Field of Fantasy (Глядя через замочную скважину в область фантазии)
    11 . After an Elegy of Illusions (После Элегии Иллюзий)
    12 . The Ladies Flap Their Wings in the Morning Forte (Утренний взмах крыльев сильнейшей)

    1) Sora no Otoshimono TV-1
    2) Sora no Otoshimono Project Pink Tougenkyou OVA
    3) Sora no Otoshimono Forte TV-2(Эта Раздача)
    4) Sora no Otoshimono: Tokei Jikake no Angeloid Movie
    5) Sora no Otoshimono Final: Eternal My Master Movie


    General
    Unique ID : 72701317450500903999447510431909920500 (0x36B1C3B1842575413A721985E8E1BEF4)
    Complete name : J: АнимеУтраченное Небесами (Sora no Otoshimono) BDRip (2009-2014)15 (Sora no Otoshimono TV-2) 01. You Strip Too! The King is Back (Долой одежду! Голый король снова в деле).mkv
    Format : Matroska
    Format version : Version 4
    File size : 2.45 GiB
    Duration : 23 min 44 s
    Overall bit rate mode : Variable
    Overall bit rate : 14.8 Mb/s
    Encoded date : UTC 2020-06-27 14: 44: 23
    Writing application : mkvmerge v47.0.0 (\'Black Flag\') 64-bit
    Writing library : libebml v1.3.10 + libmatroska v1.5.2
    Video
    ID : 1
    Format : AVC
    Format/Info : Advanced Video Codec
    Format profile : High@L4.1
    Format settings : CABAC/4 Ref Frames
    Format settings, CABAC : Yes
    Format settings, Reference : 4 frames
    Codec ID : V_MPEG4/ISO/AVC
    Duration : 23 min 44 s
    Bit rate : 12.3 Mb/s
    Width : 1 920 pixels
    Height : 1 080 pixels
    Display aspect ratio : 16: 9
    Frame rate mode : Constant
    Frame rate : 23.976 (24000/1001) FPS
    Color space : YUV
    Chroma subsampling : 4: 2: 0
    Bit depth : 8 bits
    Scan type : Progressive
    Bits/(Pixel*Frame) : 0.247
    Stream size : 2.03 GiB (83%)
    Writing library : x264 core 112 r1834 a51816a
    Encoding settings : cabac=1/ref=4/deblock=1: -2: -2/analyse=0x3: 0x133/me=umh/subme=9/psy=1/psy_rd=0.70: 0.00/mixed_ref=1/me_range=24/chroma_me=1/trellis=2/8x8dct=1/cqm=0/deadzone=21, 11/fast_pskip=1/chroma_qp_offset=-2/threads=12/sliced_threads=0/nr=0/decimate=0/interlaced=0/constrained_intra=0/bframes=8/b_pyramid=2/b_adapt=2/b_bias=0/direct=3/weightb=1/open_gop=0/weightp=2/keyint=250/keyint_min=23/scenecut=40/intra_refresh=0/rc_lookahead=40/rc=2pass/mbtree=0/bitrate=12259/ratetol=1.0/qcomp=0.60/qpmin=9/qpmax=22/qpstep=4/cplxblur=20.0/qblur=0.5/vbv_maxrate=40000/vbv_bufsize=62500/ip_ratio=1.40/pb_ratio=1.30/aq=1: 0.90/nal_hrd=none
    Language : Japanese
    Default : Yes
    Forced : No
    Audio #1
    ID : 2
    Format : AAC LC
    Format/Info : Advanced Audio Codec Low Complexity
    Codec ID : A_AAC-2
    Duration : 23 min 42 s
    Bit rate : 192 kb/s
    Channel(s) : 2 channels
    Channel layout : L R
    Sampling rate : 48.0 kHz
    Frame rate : 46.875 FPS (1024 SPF)
    Compression mode : Lossy
    Stream size : 32.5 MiB (1%)
    Title : AniMedia (Eladiel ITLM)
    Language : Russian
    Default : Yes
    Forced : No
    Audio #2
    ID : 3
    Format : AC-3
    Format/Info : Audio Coding 3
    Commercial name : Dolby Digital
    Codec ID : A_AC3
    Duration : 23 min 44 s
    Bit rate mode : Constant
    Bit rate : 192 kb/s
    Channel(s) : 2 channels
    Channel layout : L R
    Sampling rate : 48.0 kHz
    Frame rate : 31.250 FPS (1536 SPF)
    Compression mode : Lossy
    Stream size : 32.6 MiB (1%)
    Title : OpenDub (Flame KroshkaRu)
    Language : Russian
    Service kind : Complete Main
    Default : No
    Forced : No
    Audio #3
    ID : 4
    Format : AAC LC
    Format/Info : Advanced Audio Codec Low Complexity
    Codec ID : A_AAC-2
    Duration : 23 min 44 s
    Bit rate : 192 kb/s
    Channel(s) : 2 channels
    Channel layout : L R
    Sampling rate : 48.0 kHz
    Frame rate : 46.875 FPS (1024 SPF)
    Compression mode : Lossy
    Stream size : 32.6 MiB (1%)
    Title : GetSmart (Persona99)
    Language : Russian
    Default : No
    Forced : No
    Audio #4
    ID : 5
    Format : AAC LC
    Format/Info : Advanced Audio Codec Low Complexity
    Codec ID : A_AAC-2
    Duration : 23 min 44 s
    Bit rate : 384 kb/s
    Channel(s) : 2 channels
    Channel layout : L R
    Sampling rate : 48.0 kHz
    Frame rate : 46.875 FPS (1024 SPF)
    Compression mode : Lossy
    Stream size : 64.9 MiB (3%)
    Title : AniDub Cuba77
    Language : Russian
    Default : No
    Forced : No
    Audio #5
    ID : 6
    Format : FLAC
    Format/Info : Free Lossless Audio Codec
    Codec ID : A_FLAC
    Duration : 23 min 44 s
    Bit rate mode : Variable
    Bit rate : 1 535 kb/s
    Channel(s) : 2 channels
    Channel layout : L R
    Sampling rate : 48.0 kHz
    Frame rate : 11.719 FPS (4096 SPF)
    Bit depth : 24 bits
    Compression mode : Lossless
    Stream size : 261 MiB (10%)
    Title : Original
    Writing library : libFLAC 1.3.0 (UTC 2013-05-26)
    Language : Japanese
    Default : No
    Forced : No
    Text #1
    ID : 7
    Format : ASS
    Codec ID : S_TEXT/ASS
    Codec ID/Info : Advanced Sub Station Alpha
    Duration : 29 s 360 ms
    Bit rate : 54 b/s
    Count of elements : 2
    Compression mode : Lossless
    Stream size : 200 Bytes (0%)
    Title : Forced (Stan WarHammer Kain)
    Language : Russian
    Default : Yes
    Forced : No
    Text #2
    ID : 8
    Format : ASS
    Codec ID : S_TEXT/ASS
    Codec ID/Info : Advanced Sub Station Alpha
    Duration : 23 min 30 s
    Bit rate : 112 b/s
    Count of elements : 288
    Compression mode : Lossless
    Stream size : 19.3 KiB (0%)
    Title : Full (Stan WarHammer Kain)
    Language : Russian
    Default : No
    Forced : No
    Menu
    00: 00: 00.000 : en: Chapter 01
    00: 01: 36.095 : en: Chapter 02
    00: 03: 06.185 : en: Chapter 03
    00: 12: 09.729 : en: Chapter 04
    00: 21: 36.295 : en: Chapter 05
    00: 23: 06.385 : en: Chapter 06
    00: 23: 37.416 : en: Chapter 07

    Время раздачи: С 8: 00 по 18: 00 МСК (до появления первых 3-5 скачавших)
    Понравился релиз? Ставь Оценку и нажми Спасибо
    Это серьёзно меня мотивирует делать подобные релизы.
    Если всем сердцем любишь аниме - подключайся и оставайся на раздаче максимально долго! Мои Релизы
    За ретайминг звука и субтитров огромное спасибо DS2902
    Полный список ретаймов
    Рейтинг →
     (голосов: 1, оценка 5/5, голосовать можно 1 раз )

    Другие торренты по теме:

  • Sora no Otoshimono Final: Eternal My Master / Падшая с небес: Вечный хозяин (фильм второй) [2014, MV] BDrip 720p rus
  • Sora no Otoshimono Final: Eternal My Master | Утраченное Небесами: Мой Хозяин Навсегда [2014, Movie] BDRip 1080p 10-bit raw+rus
  • Sora no Otoshimono: Tokeijikake no Angeloid | Утраченное Небесами: Ангелоид Времени [2011, Movie] BDRip 1080p 10-bit raw+rus
  • Sora no Otoshimono | Утраченное Небесами [TV-1] [2009, TV, 13 ep + 1 OVA] BDRip 1080p raw+rus


    • Комментарии (0):

      Информация

      Информация

        Посетители, находящиеся в группе Гости, не могут оставлять комментарии в данной новости.