Подписывайся на наш канал в Telegram https://t.me/torrentok и получи доступ к торрентам без ограничений!
.
Авторизация | Регистрация
torrent123.club
Торрент трекер | Скачать торрент | Скачать Через Торрент | Скачать торрент бесплатно | Скачать торрент без регистрации Мультфильмы торрент скачать Sora no Otoshimono: Tokeijikake no Angeloid | Утраченное Небесами: Ангелоид Времени [2011, Movie] BDRip 1080p 10-bit raw+rus торрент скачать бесплатно

    Sora no Otoshimono: Tokeijikake no Angeloid | Утраченное Небесами: Ангелоид Времени [2011, Movie] BDRip 1080p 10-bit raw+rus торрент скачать бесплатно

    Дата: 28-06-2020, 05:00 | .torrent скачали: 0

    Sora no Otoshimono: Tokeijikake no Angeloid | Утраченное Небесами: Ангелоид Времени [2011, Movie] BDRip 1080p 10-bit raw+rusТип: Movie
    Жанр: Комедия, Этти
    Продолжительность: 01: 37: 04
    Дата выпуска: 25.06.2011
    Автор оригинала: Минадзуки Суу
    Режиссер: Сайто Хисаси
    Производство: AIC, Япония

    World-Art | AniDB | MyAnimelist | Shikimori

    Описание

    Первый фильм , который является адаптацией первого и второго сезон любимого сериалаа с альтернативной концовкой, добавлением новых кадров, информации, пояснений.
    Автор: laitqwerty ©Shikimori
    Видео Сэмпл: Скачать сЯндекс.Диск
    Качество Видео: BDRip
    Видео: AVC / x264 , 1920x1080, 23.976 fps, 10.1 Mb/s, 0.204 bpp 10-bit
    Язык Озвучки: Японский и Русский
    Озвучка: Одноголосая, Многоголосая закадровая
    Аудио №1: AAC2.0 , 48.0 kHz, 192 kb/s( Shiza Project ) |Язык:
    Аудио №2: AAC2.0 , 48.0 kHz, 192 kb/s( Anything Group AniLibria ) |Язык:
    Аудио №3: AC32.0 , 48.0 kHz, 192 kb/s( AnimeSpace ) |Язык:
    Аудио №4: AC32.0 , 48.0 kHz, 192 kb/s( GetSmart Group ) |Язык:
    Аудио №5: AC32.0 , 48.0 kHz, 192 kb/s( Kai ) |Язык:
    Аудио №6: FLAC4.0 , 48.0 kHz, 2 277 kb/s 24-Bit( Original ) |Язык:
    Аудио №7: FLAC2.0 , 48.0 kHz, 1 416 kb/s 24-Bit( Original ) |Язык:
    Субтитры: Надписи, Полные( gorodoshnik Stan WarHammer )
    Скриншоты:


    Tokei Jikake no Angeloid Movie



    1) Sora no Otoshimono TV-1
    2) Sora no Otoshimono: Project Pink Tougenkyou OVA
    3) Sora no Otoshimono Forte TV-2
    4) Sora no Otoshimono: Tokei Jikake no Angeloid Movie(Эта Раздача)
    5) Sora no Otoshimono Final: Eternal My Master Movie


    General
    Unique ID : 231384831520668334977395267882854763854 (0xAE1318FA5D698A12F92EDB72FA11CD4E)
    Complete name : J: АнимеУтраченное Небесами (Sora no Otoshimono) BDRip (2009-2014)Sora no Otoshimono Movie0 (Sora no Otoshimono Movie) 01. Sora no Otoshimono. Tokei Jikake no Angeloid (Утраченное Небесами. Богиня Часового Механизма) Compilation S1 S2.mkv
    Format : Matroska
    Format version : Version 4
    File size : 10.1 GiB
    Duration : 1 h 37 min
    Overall bit rate mode : Variable
    Overall bit rate : 14.8 Mb/s
    Encoded date : UTC 2020-06-27 08: 32: 23
    Writing application : mkvmerge v47.0.0 (\'Black Flag\') 64-bit
    Writing library : libebml v1.3.10 + libmatroska v1.5.2
    Attachments : adobegothicstd-bold.otf/ALBAS_.TTF/ALBR85W.TTF/ALIEN5.TTF/amerigo-bt.ttf/AmerText.ttf/ANA-ONEIROPARMENI82.TTF/ANGLIC.TTF/arial.ttf/arial_0.ttf/BlissProOT-Regular.otf/boopee_regular.ttf/Brady_Bunch.ttf/cac_moose.ttf/Call421.ttf/CALLIGR0.TTF/chinrg.ttf/Chlorinez.ttf/comic.ttf/comic_0.ttf/COOPBL.TTF/Eco-Files.ttf/ERASBD.TTF/FRADM.TTF/HOBBYHOR.TTF/icedeart.ttf/Illusion.TTF/InterNuT_Round.ttf/ITCKRIST.TTF/JungleStandard.ttf/kaiu.ttf/linkin.ttf/Myriad.ttf/MyriadWEB.ttf/nyala.ttf/nyala_0.ttf/scar6.ttf/simhei.ttf/simhei_0.ttf/Thick Head ($).TTF/ufonts.com_lynda-wide-normal.ttf
    Video
    ID : 1
    Format : AVC
    Format/Info : Advanced Video Codec
    Format profile : High10@L4.1
    Format settings : CABAC/4 Ref Frames
    Format settings, CABAC : Yes
    Format settings, Reference : 4 frames
    Codec ID : V_MPEG4/ISO/AVC
    Duration : 1 h 37 min
    Bit rate : 10.1 Mb/s
    Width : 1 920 pixels
    Height : 1 080 pixels
    Display aspect ratio : 16: 9
    Frame rate mode : Constant
    Frame rate : 23.976 (24000/1001) FPS
    Color space : YUV
    Chroma subsampling : 4: 2: 0
    Bit depth : 10 bits
    Scan type : Progressive
    Bits/(Pixel*Frame) : 0.204
    Stream size : 6.87 GiB (68%)
    Writing library : x264 core 125 r2200 999b753
    Encoding settings : cabac=1/ref=4/deblock=1: -2: -2/analyse=0x3: 0x133/me=umh/subme=9/psy=1/psy_rd=0.80: 0.00/mixed_ref=1/me_range=24/chroma_me=1/trellis=2/8x8dct=1/cqm=0/deadzone=21, 11/fast_pskip=1/chroma_qp_offset=-2/threads=12/lookahead_threads=2/sliced_threads=0/nr=0/decimate=0/interlaced=0/bluray_compat=0/constrained_intra=0/bframes=8/b_pyramid=2/b_adapt=2/b_bias=0/direct=3/weightb=1/open_gop=0/weightp=2/keyint=250/keyint_min=23/scenecut=40/intra_refresh=0/rc=crf/mbtree=0/crf=16.0/qcomp=0.70/qpmin=15/qpmax=52/qpstep=4/ip_ratio=1.40/pb_ratio=1.30/aq=1: 0.90
    Language : Japanese
    Default : Yes
    Forced : No
    Audio #1
    ID : 2
    Format : AAC LC
    Format/Info : Advanced Audio Codec Low Complexity
    Codec ID : A_AAC-2
    Duration : 1 h 37 min
    Bit rate : 192 kb/s
    Channel(s) : 2 channels
    Channel layout : L R
    Sampling rate : 48.0 kHz
    Frame rate : 46.875 FPS (1024 SPF)
    Compression mode : Lossy
    Stream size : 133 MiB (1%)
    Title : Shiza Project MVO
    Language : Russian
    Default : No
    Forced : No
    Audio #2
    ID : 3
    Format : AAC LC
    Format/Info : Advanced Audio Codec Low Complexity
    Codec ID : A_AAC-2
    Duration : 1 h 37 min
    Bit rate : 192 kb/s
    Channel(s) : 2 channels
    Channel layout : L R
    Sampling rate : 48.0 kHz
    Frame rate : 46.875 FPS (1024 SPF)
    Compression mode : Lossy
    Stream size : 133 MiB (1%)
    Title : Anything Group AniLibria Darmen, Dajana, Eladiel, Milirinа, Ms Наташа, Sad_Kit, Say, Silv
    Language : Russian
    Default : Yes
    Forced : No
    Audio #3
    ID : 4
    Format : AC-3
    Format/Info : Audio Coding 3
    Commercial name : Dolby Digital
    Codec ID : A_AC3
    Duration : 1 h 37 min
    Bit rate mode : Constant
    Bit rate : 192 kb/s
    Channel(s) : 2 channels
    Channel layout : L R
    Sampling rate : 48.0 kHz
    Frame rate : 31.250 FPS (1536 SPF)
    Compression mode : Lossy
    Stream size : 133 MiB (1%)
    Title : AnimeSpace DAKJE, Zlo, Monset, ZoIIaN, Phobia, Лёка, SuZu
    Language : Russian
    Service kind : Complete Main
    Default : No
    Forced : No
    Audio #4
    ID : 5
    Format : AC-3
    Format/Info : Audio Coding 3
    Commercial name : Dolby Digital
    Codec ID : A_AC3
    Duration : 1 h 37 min
    Bit rate mode : Constant
    Bit rate : 192 kb/s
    Channel(s) : 2 channels
    Channel layout : L R
    Sampling rate : 48.0 kHz
    Frame rate : 31.250 FPS (1536 SPF)
    Compression mode : Lossy
    Stream size : 133 MiB (1%)
    Title : GetSmart Group Persona99
    Language : Russian
    Service kind : Complete Main
    Default : No
    Forced : No
    Audio #5
    ID : 6
    Format : AC-3
    Format/Info : Audio Coding 3
    Commercial name : Dolby Digital
    Codec ID : A_AC3
    Duration : 1 h 37 min
    Bit rate mode : Constant
    Bit rate : 192 kb/s
    Channel(s) : 2 channels
    Channel layout : L R
    Sampling rate : 48.0 kHz
    Frame rate : 31.250 FPS (1536 SPF)
    Compression mode : Lossy
    Stream size : 133 MiB (1%)
    Title : Kai AVO
    Language : Russian
    Service kind : Complete Main
    Default : No
    Forced : No
    Audio #6
    ID : 7
    Format : FLAC
    Format/Info : Free Lossless Audio Codec
    Codec ID : A_FLAC
    Duration : 1 h 37 min
    Bit rate mode : Variable
    Bit rate : 2 277 kb/s
    Channel(s) : 4 channels
    Channel layout : L R C Cb
    Sampling rate : 48.0 kHz
    Frame rate : 11.719 FPS (4096 SPF)
    Bit depth : 24 bits
    Compression mode : Lossless
    Stream size : 1.54 GiB (15%)
    Title : Original (4.0)
    Writing library : libFLAC 1.2.1 (UTC 2007-09-17)
    Language : Japanese
    Default : No
    Forced : No
    Audio #7
    ID : 8
    Format : FLAC
    Format/Info : Free Lossless Audio Codec
    Codec ID : A_FLAC
    Duration : 1 h 37 min
    Bit rate mode : Variable
    Bit rate : 1 416 kb/s
    Channel(s) : 2 channels
    Channel layout : L R
    Sampling rate : 48.0 kHz
    Frame rate : 11.719 FPS (4096 SPF)
    Bit depth : 24 bits
    Compression mode : Lossless
    Stream size : 984 MiB (10%)
    Title : Original (2.0)
    Writing library : libFLAC 1.2.1 (UTC 2007-09-17)
    Language : Japanese
    Default : No
    Forced : No
    Text #1
    ID : 9
    Format : ASS
    Codec ID : S_TEXT/ASS
    Codec ID/Info : Advanced Sub Station Alpha
    Duration : 1 h 30 min
    Bit rate : 2 b/s
    Count of elements : 14
    Compression mode : Lossless
    Stream size : 1.43 KiB (0%)
    Title : Forced gorodoshnik Stan WarHammer
    Language : Russian
    Default : Yes
    Forced : No
    Text #2
    ID : 10
    Format : ASS
    Codec ID : S_TEXT/ASS
    Codec ID/Info : Advanced Sub Station Alpha
    Duration : 1 h 30 min
    Bit rate : 146 b/s
    Count of elements : 1143
    Compression mode : Lossless
    Stream size : 97.2 KiB (0%)
    Title : Full gorodoshnik Stan WarHammer
    Language : Russian
    Default : No
    Forced : No
    Menu
    00: 00: 00.000 : : Chapter 1
    00: 03: 55.402 : : Chapter 2
    00: 06: 45.655 : : Chapter 3
    00: 10: 14.155 : : Chapter 4
    00: 16: 27.486 : : Chapter 5
    00: 20: 05.454 : : Chapter 6
    00: 28: 18.697 : : Chapter 7
    00: 33: 57.661 : : Chapter 8
    00: 36: 12.170 : : Chapter 9
    00: 43: 58.636 : : Chapter 10
    00: 47: 15.416 : : Chapter 11
    00: 53: 43.804 : : Chapter 12
    00: 58: 26.795 : : Chapter 13
    01: 05: 44.941 : : Chapter 14
    01: 10: 14.419 : : Chapter 15
    01: 17: 35.860 : : Chapter 16
    01: 22: 30.779 : : Chapter 17
    01: 31: 00.121 : : Chapter 18

    Время раздачи: С 8: 00 по 18: 00 МСК (до появления первых 3-5 скачавших)
    Понравился релиз? Ставь Оценку и нажми Спасибо
    Это серьёзно меня мотивирует делать подобные релизы.
    Если всем сердцем любишь аниме - подключайся и оставайся на раздаче максимально долго! Мои Релизы
    За ретайминг звука и субтитров огромное спасибо DS2902
    Полный список ретаймов


    Онлайн видео Sora no Otoshimono: Tokeijikake no Angeloid

    Рейтинг →
     (голосов: 1, оценка 4/5, голосовать можно 1 раз )

    Другие торренты по теме:

  • Sora no Otoshimono Final: Eternal My Master / Падшая с небес: Вечный хозяин (фильм второй) [2014, MV] BDrip 720p rus
  • Sora no Otoshimono Final: Eternal My Master | Утраченное Небесами: Мой Хозяин Навсегда [2014, Movie] BDRip 1080p 10-bit raw+rus
  • Sora no Otoshimono: Forte | Утраченное Небесами: Сильнейшая [TV-2] [2010, TV, 12 ep] BDRip 1080p raw+rus
  • Sora no Otoshimono | Утраченное Небесами [TV-1] [2009, TV, 13 ep + 1 OVA] BDRip 1080p raw+rus


    • Комментарии (0):

      Информация

      Информация

        Посетители, находящиеся в группе Гости, не могут оставлять комментарии в данной новости.