Подписывайся на наш канал в Telegram https://t.me/torrentok и получи доступ к торрентам без ограничений!
.
Авторизация | Регистрация
torrent123.club


Sora no Otoshimono | Утраченное Небесами [TV-1] [2009, TV, 13 ep + 1 OVA] BDRip 1080p raw+rus торрент скачать бесплатно

Дата: 28-06-2020, 05:00 | .torrent скачали: 0

Sora no Otoshimono | Утраченное Небесами [TV-1] [2009, TV, 13 ep + 1 OVA] BDRip 1080p raw+rusТип: TV
Жанр: Комедия, Романтика, Этти
Продолжительность: 14 Эпизодов по 23 Мин
Количество серий: 14 Эпизодов
Дата выпуска: 05.10.2009 по28.12.2009
Автор оригинала: Минадзуки Суу
Режиссер: Сайто Хисаси
Производство: AIC, Япония

World-Art | AniDB | MyAnimelist | Shikimori

Описание

Томоки Сакурай со времён своего детства видит один и тот же странный сон, каждый раз просыпаясь в слезах. Эйсиро Сугата, старшеклассник из его школы, верит, что этот сон — сон о некоем Новом континенте, парящем в небе. Позже вечером, ожидая под деревьями вишни Сугату с подругой детства — Сохарой Мицуки, Сакурай видит, как ангел спускается на землю с небес. И его мирная жизнь с этого момента меняется навсегда...
Автор: Justin Bailey ©Shikimori
Видео Сэмпл: Скачать сЯндекс.Диск
Наличие цензуры: Да (Смотрите сэмплы для ознакомления)
Качество Видео: BDRip
Видео TV-1: AVC / x264 , 1920x1080, 23.976 fps, 8 040 kb/s, 0.162 bpp 8-bit
Видео OVA: AVC / x264 , 1920x1080, 23.976 fps, 4 767 kb/s, 0.096 bpp 8-bit
Язык Озвучки: Японский и Русский
Озвучка: Одноголосая, Двухголосая, Многоголосая закадровая
TV-1
Аудио №1: AAC2.0 , 48.0 kHz, 192 kb/s( AniMedia ) |Язык:
Аудио №2: AAC2.0 , 48.0 kHz, 172 kb/s( OpenDub ) |Язык:
Аудио №3: AAC2.0 , 48.0 kHz, 160 kb/s( GetSmart Group ) |Язык:
Аудио №4: FLAC2.0 , 48.0 kHz, 628 kb/s 16-Bit( AniDub ) |Язык:
Аудио №5: FLAC2.0 , 48.0 kHz, 722 kb/s 16-Bit( Original ) |Язык:
OVA
Аудио №1: AAC2.0 , 48.0 kHz, 192 kb/s( AniMedia ) |Язык:
Аудио №2: AAC2.0 , 48.0 kHz, 192 kb/s( GetSmart Group ) |Язык:
Аудио №3: AAC2.0 , 48.0 kHz, 165 kb/s( Shiza Project ) |Язык:
Аудио №4: FLAC2.0 , 48.0 kHz, 656 kb/s 16-Bit( AniDub ) |Язык:
Аудио №5: FLAC2.0 , 48.0 kHz, 794 kb/s 16-Bit( Original ) |Язык:
Субтитры: Надписи, Полные( Kain ТМ Stan WarHammer/Advantage )
Скриншоты:


TV-1


OVA



TV-1
01 . A Naked Hero Arises! (Повелитель без трусов)
02 . Heavenly Romance (Божественный роман)
03 . An Angeloid`s First Order (Первое поручение ангелоида)
04 . Love and a Triangle - Again (Иногда они возвращаются)
05 . A Steamy Night with a Big Shot (Бурная ночь с важной персоной)
06 . Swimsuit Troops Go! Go! Go! (Купальники вперёд! Вперёд! Вперёд!)
07 . The Cute New Girls (Симпатичные новенькие)
08 . For Whom is the Festival Thrown (Королевская битва)
09 . A Story That Starts With a Lie (История, начавшаяся со лжи)
10 . Where the Words of Angels Go (Песнь ангела)
11 . Let`s Go! My Paradise (Вперёд! Мой рай!)
12 . The Chain Which Doesn`t Grant Escape (Цепь, исключающая побег)
13 . Lost Property of the Sky (Утерянное небесами)
OVA
14 . Project Pink Tougenkyou (Ангел прихоти Операция Розовый рай)

1) Sora no Otoshimono TV-1(Эта Раздача)
2) Sora no Otoshimono Project Pink Tougenkyou OVA(Эта Раздача)
3) Sora no Otoshimono Forte TV-2
4) Sora no Otoshimono: Tokei Jikake no Angeloid Movie
5) Sora no Otoshimono Final: Eternal My Master Movie


General
Unique ID : 87289829768504689373799152262825625615 (0x41AB68E20B59380861937CE7047FC80F)
Complete name : J: АнимеУтраченное Небесами (Sora no Otoshimono) BDRip (2009-2014)1 (Sora no Otoshimono TV-1) 01. A Naked Hero Arises! (Повелитель без трусов).mkv
Format : Matroska
Format version : Version 4
File size : 1.64 GiB
Duration : 23 min 42 s
Overall bit rate mode : Variable
Overall bit rate : 9 915 kb/s
Encoded date : UTC 2020-06-27 14: 20: 17
Writing application : mkvmerge v47.0.0 (\'Black Flag\') 64-bit
Writing library : libebml v1.3.10 + libmatroska v1.5.2
Video
ID : 1
Format : AVC
Format/Info : Advanced Video Codec
Format profile : High@L4.1
Format settings : CABAC/3 Ref Frames
Format settings, CABAC : Yes
Format settings, Reference : 3 frames
Codec ID : V_MPEG4/ISO/AVC
Duration : 23 min 42 s
Bit rate mode : Variable
Bit rate : 8 040 kb/s
Nominal bit rate : 30.0 Mb/s
Maximum bit rate : 40.0 Mb/s
Width : 1 920 pixels
Height : 1 080 pixels
Display aspect ratio : 16: 9
Frame rate mode : Constant
Frame rate : 23.976 (24000/1001) FPS
Color space : YUV
Chroma subsampling : 4: 2: 0
Bit depth : 8 bits
Scan type : Progressive
Bits/(Pixel*Frame) : 0.162
Stream size : 1.33 GiB (81%)
Writing library : x264 core 115 r2004+553_tMod+MixAQ 28bd817
Encoding settings : cabac=1/ref=4/deblock=1: -3: -3/analyse=0x3: 0x133/me=umh/subme=9/psy=1/fade_compensate=0.00/psy_rd=3.00: 0.00/mixed_ref=1/me_range=48/chroma_me=1/trellis=1/8x8dct=1/cqm=0/deadzone=6, 3/fast_pskip=1/chroma_qp_offset=-2/threads=6/sliced_threads=0/slices=4/nr=0/decimate=1/interlaced=0/bluray_compat=0/constrained_intra=0/fgo=0/bframes=8/b_pyramid=1/b_adapt=1/b_bias=1/direct=3/weightb=1/open_gop=0/weightp=2/keyint=250/keyint_min=24/scenecut=56/intra_refresh=0/rc_lookahead=40/rc=2pass/mbtree=1/bitrate=30000/ratetol=1.0/qcomp=0.60/qpmin=16/qpmax=28/qpstep=9/cplxblur=20.0/qblur=0.5/vbv_maxrate=40000/vbv_bufsize=50000/nal_hrd=vbr/ip_ratio=1.40/aq=1/aq-strength=1.20/aq-sensitivity=10.00/aq-ifactor=1.00/aq-pfactor=1.00/aq-bfactor=1.00/aq2=0
Language : Japanese
Default : Yes
Forced : No
Color range : Limited
Color primaries : BT.709
Transfer characteristics : BT.709
Matrix coefficients : BT.709
Audio #1
ID : 2
Format : AAC LC
Format/Info : Advanced Audio Codec Low Complexity
Codec ID : A_AAC-2
Duration : 23 min 42 s
Bit rate : 192 kb/s
Channel(s) : 2 channels
Channel layout : L R
Sampling rate : 48.0 kHz
Frame rate : 46.875 FPS (1024 SPF)
Compression mode : Lossy
Stream size : 32.6 MiB (2%)
Title : AniMedia (Eladiel ITLM)
Language : Russian
Default : Yes
Forced : No
Audio #2
ID : 3
Format : AAC LC
Format/Info : Advanced Audio Codec Low Complexity
Codec ID : A_AAC-2
Duration : 23 min 40 s
Bit rate : 172 kb/s
Channel(s) : 2 channels
Channel layout : L R
Sampling rate : 48.0 kHz
Frame rate : 46.875 FPS (1024 SPF)
Compression mode : Lossy
Stream size : 29.1 MiB (2%)
Title : OpenDub (Sergos, Persona99, Анталия, MaxDamage)
Language : Russian
Default : No
Forced : No
Audio #3
ID : 4
Format : AAC LC
Format/Info : Advanced Audio Codec Low Complexity
Codec ID : A_AAC-2
Duration : 23 min 41 s
Bit rate : 160 kb/s
Channel(s) : 2 channels
Channel layout : L R
Sampling rate : 48.0 kHz
Frame rate : 46.875 FPS (1024 SPF)
Compression mode : Lossy
Stream size : 27.1 MiB (2%)
Title : GetSmart Group (Persona99)
Language : Russian
Default : No
Forced : No
Audio #4
ID : 5
Format : FLAC
Format/Info : Free Lossless Audio Codec
Codec ID : A_FLAC
Duration : 23 min 42 s
Bit rate mode : Variable
Bit rate : 628 kb/s
Channel(s) : 2 channels
Channel layout : L R
Sampling rate : 48.0 kHz
Frame rate : 11.719 FPS (4096 SPF)
Bit depth : 16 bits
Compression mode : Lossless
Stream size : 106 MiB (6%)
Title : AniDub Cuba77
Writing library : libFLAC 20080709 (UTC 2008-07-09)
Language : Russian
Default : No
Forced : No
Audio #5
ID : 6
Format : FLAC
Format/Info : Free Lossless Audio Codec
Codec ID : A_FLAC
Duration : 23 min 42 s
Bit rate mode : Variable
Bit rate : 722 kb/s
Channel(s) : 2 channels
Channel layout : L R
Sampling rate : 48.0 kHz
Frame rate : 11.719 FPS (4096 SPF)
Bit depth : 16 bits
Compression mode : Lossless
Stream size : 122 MiB (7%)
Title : Original
Writing library : libFLAC 1.3.0 (UTC 2013-05-26)
Language : Japanese
Default : No
Forced : No
Text #1
ID : 7
Format : ASS
Codec ID : S_TEXT/ASS
Codec ID/Info : Advanced Sub Station Alpha
Duration : 7 min 8 s
Bit rate : 6 b/s
Count of elements : 5
Compression mode : Lossless
Stream size : 342 Bytes (0%)
Title : Forced Kain ТМ Stan WarHammer
Language : Russian
Default : Yes
Forced : No
Text #2
ID : 8
Format : ASS
Codec ID : S_TEXT/ASS
Codec ID/Info : Advanced Sub Station Alpha
Duration : 23 min 36 s
Bit rate : 158 b/s
Count of elements : 327
Compression mode : Lossless
Stream size : 27.4 KiB (0%)
Title : Full Kain ТМ Stan WarHammer
Language : Russian
Default : No
Forced : No
Text #3
ID : 9
Format : ASS
Codec ID : S_TEXT/ASS
Codec ID/Info : Advanced Sub Station Alpha
Duration : 5 min 10 s
Bit rate : 23 b/s
Count of elements : 7
Compression mode : Lossless
Stream size : 917 Bytes (0%)
Title : Forced Advantage
Language : Russian
Default : No
Forced : No
Text #4
ID : 10
Format : ASS
Codec ID : S_TEXT/ASS
Codec ID/Info : Advanced Sub Station Alpha
Duration : 23 min 35 s
Bit rate : 163 b/s
Count of elements : 339
Compression mode : Lossless
Stream size : 28.2 KiB (0%)
Title : Full Advantage
Language : Russian
Default : No
Forced : No
Menu
00: 00: 00.000 : : Chapter 01
00: 01: 54.030 : : Chapter 02
00: 11: 15.049 : : Chapter 03
00: 21: 43.677 : : Chapter 04
00: 23: 13.058 : : Chapter 05
00: 23: 36.081 : : Chapter 06
00: 23: 42.087 : : Chapter 07



General
Unique ID : 55997233332488744180865308072841892886 (0x2A20ACC2D31ADBD01373E70A4A54D416)
Complete name : J: АнимеУтраченное Небесами (Sora no Otoshimono) BDRip (2009-2014)14 (Sora no Otoshimono OVA) 14. Project Pink Tougenkyou (Ангел прихоти Операция Розовый рай).mkv
Format : Matroska
Format version : Version 4
File size : 1.12 GiB
Duration : 23 min 43 s
Overall bit rate mode : Variable
Overall bit rate : 6 774 kb/s
Encoded date : UTC 2020-06-27 14: 43: 19
Writing application : mkvmerge v47.0.0 (\'Black Flag\') 64-bit
Writing library : libebml v1.3.10 + libmatroska v1.5.2
Attachments : arial.ttf/BebasNeue.otf/camilla.ttf/Essai.ttf/Fh_Script.otf/Ingleby_bold.ttf/Ingleby_bold_italic.ttf/Ingleby_italic.ttf
Video
ID : 1
Format : AVC
Format/Info : Advanced Video Codec
Format profile : High@L4
Format settings : CABAC/4 Ref Frames
Format settings, CABAC : Yes
Format settings, Reference : 4 frames
Codec ID : V_MPEG4/ISO/AVC
Duration : 23 min 42 s
Bit rate : 4 767 kb/s
Width : 1 920 pixels
Height : 1 080 pixels
Display aspect ratio : 16: 9
Frame rate mode : Constant
Frame rate : 23.976 (23976/1000) FPS
Color space : YUV
Chroma subsampling : 4: 2: 0
Bit depth : 8 bits
Scan type : Progressive
Bits/(Pixel*Frame) : 0.096
Stream size : 809 MiB (70%)
Writing library : x264 core 112
Encoding settings : cabac=1/ref=3/deblock=1: 1: 1/analyse=0x3: 0x113/me=hex/subme=7/psy=1/psy_rd=0.40: 0.00/mixed_ref=1/me_range=16/chroma_me=1/trellis=1/8x8dct=1/cqm=0/deadzone=21, 11/fast_pskip=1/chroma_qp_offset=-2/threads=6/sliced_threads=0/nr=0/decimate=1/interlaced=0/constrained_intra=0/bframes=3/b_pyramid=2/b_adapt=2/b_bias=0/direct=1/weightb=1/open_gop=0/weightp=2/keyint=240/keyint_min=23/scenecut=40/intra_refresh=0/rc_lookahead=50/rc=crf/mbtree=1/crf=16.0/qcomp=0.60/qpmin=3/qpmax=51/qpstep=4/ip_ratio=1.40/aq=1: 0.60
Language : Japanese
Default : Yes
Forced : No
Color range : Limited
Color primaries : BT.709
Transfer characteristics : BT.709
Matrix coefficients : BT.709
Audio #1
ID : 2
Format : AAC LC
Format/Info : Advanced Audio Codec Low Complexity
Codec ID : A_AAC-2
Duration : 23 min 43 s
Bit rate : 192 kb/s
Channel(s) : 2 channels
Channel layout : L R
Sampling rate : 48.0 kHz
Frame rate : 46.875 FPS (1024 SPF)
Compression mode : Lossy
Stream size : 32.6 MiB (3%)
Title : AniMedia Eladiel ITLM
Language : Russian
Default : Yes
Forced : No
Audio #2
ID : 3
Format : AAC LC
Format/Info : Advanced Audio Codec Low Complexity
Codec ID : A_AAC-2
Duration : 23 min 43 s
Bit rate : 192 kb/s
Channel(s) : 2 channels
Channel layout : L R
Sampling rate : 48.0 kHz
Frame rate : 46.875 FPS (1024 SPF)
Compression mode : Lossy
Stream size : 32.6 MiB (3%)
Title : GetSmart Group Persona99
Language : Russian
Default : No
Forced : No
Audio #3
ID : 4
Format : AAC LC
Format/Info : Advanced Audio Codec Low Complexity
Codec ID : A_AAC-2
Duration : 23 min 42 s
Bit rate : 165 kb/s
Channel(s) : 2 channels
Channel layout : L R
Sampling rate : 48.0 kHz
Frame rate : 46.875 FPS (1024 SPF)
Compression mode : Lossy
Stream size : 28.0 MiB (2%)
Title : Shiza Project Azazel Oni
Language : Russian
Default : No
Forced : No
Audio #4
ID : 5
Format : FLAC
Format/Info : Free Lossless Audio Codec
Codec ID : A_FLAC
Duration : 23 min 42 s
Bit rate mode : Variable
Bit rate : 656 kb/s
Channel(s) : 2 channels
Channel layout : L R
Sampling rate : 48.0 kHz
Frame rate : 11.719 FPS (4096 SPF)
Bit depth : 16 bits
Compression mode : Lossless
Stream size : 111 MiB (10%)
Title : AniDub Cuba77
Writing library : libFLAC 20080709 (UTC 2008-07-09)
Language : Russian
Default : No
Forced : No
Audio #5
ID : 6
Format : FLAC
Format/Info : Free Lossless Audio Codec
Codec ID : A_FLAC
Duration : 23 min 42 s
Bit rate mode : Variable
Bit rate : 794 kb/s
Channel(s) : 2 channels
Channel layout : L R
Sampling rate : 48.0 kHz
Frame rate : 11.719 FPS (4096 SPF)
Bit depth : 16 bits
Compression mode : Lossless
Stream size : 135 MiB (12%)
Title : Original
Writing library : libFLAC 1.3.0 (UTC 2013-05-26)
Language : Japanese
Default : No
Forced : No
Text #1
ID : 7
Format : ASS
Codec ID : S_TEXT/ASS
Codec ID/Info : Advanced Sub Station Alpha
Duration : 20 min 27 s
Bit rate : 4 b/s
Count of elements : 8
Compression mode : Lossless
Stream size : 697 Bytes (0%)
Title : Forced (Stan WarHammer Kain)
Language : Russian
Default : Yes
Forced : No
Text #2
ID : 8
Format : ASS
Codec ID : S_TEXT/ASS
Codec ID/Info : Advanced Sub Station Alpha
Duration : 23 min 36 s
Bit rate : 140 b/s
Count of elements : 357
Compression mode : Lossless
Stream size : 24.2 KiB (0%)
Title : Full (Stan WarHammer Kain)
Language : Russian
Default : No
Forced : No
Menu
00: 00: 00.000 : en: Intro
00: 00: 54.053 : en: Opening
00: 02: 24.018 : en: Part A
00: 10: 41.056 : en: Part B
00: 21: 31.039 : en: Ending
00: 23: 00.002 : en: Part C
00: 23: 35.955 : en: Preview

Время раздачи: С 8: 00 по 18: 00 МСК (до появления первых 3-5 скачавших)
Понравился релиз? Ставь Оценку и нажми Спасибо
Это серьёзно меня мотивирует делать подобные релизы.
Если всем сердцем любишь аниме - подключайся и оставайся на раздаче максимально долго! Мои Релизы
За ретайминг звука и субтитров огромное спасибо DS2902
Полный список ретаймов


Онлайн видео Sora no Otoshimono

Рейтинг →
 (голосов: 1, оценка 5/5, голосовать можно 1 раз )

Другие торренты по теме:

  • Sora no Otoshimono Final: Eternal My Master / Падшая с небес: Вечный хозяин (фильм второй) [2014, MV] BDrip 720p rus
  • Sora no Otoshimono Final: Eternal My Master | Утраченное Небесами: Мой Хозяин Навсегда [2014, Movie] BDRip 1080p 10-bit raw+rus
  • Sora no Otoshimono: Forte | Утраченное Небесами: Сильнейшая [TV-2] [2010, TV, 12 ep] BDRip 1080p raw+rus
  • Sora no Otoshimono: Tokeijikake no Angeloid | Утраченное Небесами: Ангелоид Времени [2011, Movie] BDRip 1080p 10-bit raw+rus


    • Комментарии (0):

      Информация

      Информация

        Посетители, находящиеся в группе Гости, не могут оставлять комментарии в данной новости.