Подписывайся на наш канал в Telegram https://t.me/torrentok и получи доступ к торрентам без ограничений!
.
Авторизация | Регистрация
torrent123.club
Торрент трекер | Скачать торрент | Скачать Через Торрент | Скачать торрент бесплатно | Скачать торрент без регистрации Мультфильмы торрент скачать Tachibanakan to Lie Angle | Любовные Страсти Пансиона Тачибана [2018, TV, 12 ep] BDRip 1080p raw+rus торрент скачать бесплатно


    Tachibanakan to Lie Angle | Любовные Страсти Пансиона Тачибана [2018, TV, 12 ep] BDRip 1080p raw+rus торрент скачать бесплатно

    Дата: 28-06-2020, 05:00 | .torrent скачали: 0

    Tachibanakan to Lie Angle | Любовные Страсти Пансиона Тачибана [2018, TV, 12 ep] BDRip 1080p raw+rusТип: TV
    Жанр: Комедия, Романтика, Этти
    Продолжительность: 12 Эпизодов по 4 Мин
    Количество серий: 12 Эпизодов
    Дата выпуска: c04.04.2018 по20.06.2018
    Автор оригинала: Merryhachi
    Режиссер: Хирасава Хисаёси
    Производство: Creators in Pack, Япония

    World-Art | AniDB | MyAnimelist | Shikimori

    Описание

    Ханаби Нацуно вернулась в свой родной город, чтобы учиться в старшей школе. Теперь у меня новая, прекрасная жизнь, — думала она, но Татибана, общежитие, в котором собиралась жить Ханаби, стало не тем местом, о котором она мечтала.
    Автор: one season per night ©Shikimori
    Качество Видео: BDRip
    Видео: AVC / x264 , 1920x1080, 23.976 fps, 8 733 kb/s, 0.176 bpp 8-bit
    Язык Озвучки: Японский и Русский
    Озвучка: Двухголосая, Многоголосая закадровая
    Аудио №1: AAC2.0 , 48.0 kHz, 192 kb/s( Kansai Studio ) |Язык:
    Аудио №1: AAC2.0 , 48.0 kHz, 192 kb/s( Shiza Project ) |Язык:
    Аудио №1: AAC2.0 , 48.0 kHz, 192 kb/s( AniDub ) |Язык:
    Аудио №2: FLAC2.0 , 48.0 kHz, 753 kb/s 16-Bit( Original ) |Язык:
    Субтитры: Надписи, Полные( RisensTeam/Tsundere )
    Скриншоты:




    01 . New Life! (Новая жизнь!)
    02 . Secret Place (Секретное место)
    03 . Spying and Sleeping Together (Шпионить и спать вместе)
    04 . Trials and Toilets (Тесты и туалет)
    05 . Summer Clothes and Closets (Шкафы и летняя одежда)
    06 . Welcome Party and Water Gun (Приветственный праздник и водяной пистолет)
    07 . Meteor Shower and a Bucket (Метеоритный дождь и ведро)
    08 . Fish and a Kiss (Рыба и поцелуй)
    09 . A Cold and Memories (Простуда и Воспоминания)
    10 . Hot Springs and Ping Pong (Горячие источники и пинг-понг)
    11 . Summer Festival (Летний фестиваль)
    12 . Here, at Tachibanakan (Здесь, в Тачибанакане)


    General
    Unique ID : 158935393749526838743586580837481538199 (0x7791D7E95BCA41A635D639C15B1F6297)
    Complete name : J: АнимеЛюбовные Страсти Пансиона Тачибана BDRip (2018)1. New Life! (Новая жизнь!).mkv
    Format : Matroska
    Format version : Version 4
    File size : 256 MiB
    Duration : 3 min 31 s
    Overall bit rate mode : Variable
    Overall bit rate : 10.1 Mb/s
    Encoded date : UTC 2020-06-27 16: 02: 27
    Writing application : mkvmerge v47.0.0 (\'Black Flag\') 64-bit
    Writing library : libebml v1.3.10 + libmatroska v1.5.2
    Video
    ID : 1
    Format : AVC
    Format/Info : Advanced Video Codec
    Format profile : High@L4.1
    Format settings : CABAC/4 Ref Frames
    Format settings, CABAC : Yes
    Format settings, Reference : 4 frames
    Codec ID : V_MPEG4/ISO/AVC
    Duration : 3 min 31 s
    Bit rate : 8 733 kb/s
    Width : 1 920 pixels
    Height : 1 080 pixels
    Display aspect ratio : 16: 9
    Frame rate mode : Constant
    Frame rate : 23.976 (24000/1001) FPS
    Color space : YUV
    Chroma subsampling : 4: 2: 0
    Bit depth : 8 bits
    Scan type : Progressive
    Bits/(Pixel*Frame) : 0.176
    Stream size : 220 MiB (86%)
    Writing library : x264 core 155 r2901 7d0ff22
    Encoding settings : cabac=1/ref=4/deblock=1: -1: -1/analyse=0x3: 0x133/me=umh/subme=9/psy=1/psy_rd=0.85: 0.00/mixed_ref=1/me_range=32/chroma_me=1/trellis=2/8x8dct=1/cqm=0/deadzone=21, 11/fast_pskip=1/chroma_qp_offset=-4/threads=4/lookahead_threads=1/sliced_threads=0/nr=0/decimate=0/interlaced=0/bluray_compat=0/constrained_intra=0/bframes=5/b_pyramid=2/b_adapt=2/b_bias=0/direct=2/weightb=1/open_gop=0/weightp=2/keyint=230/keyint_min=23/scenecut=40/intra_refresh=0/rc_lookahead=50/rc=crf/mbtree=1/crf=15.0/qcomp=0.70/qpmin=10/qpmax=42/qpstep=4/vbv_maxrate=50000/vbv_bufsize=50000/crf_max=0.0/nal_hrd=none/filler=0/ip_ratio=1.40/aq=1: 0.90
    Language : Japanese
    Default : Yes
    Forced : No
    Audio #1
    ID : 2
    Format : AAC LC
    Format/Info : Advanced Audio Codec Low Complexity
    Codec ID : A_AAC-2
    Duration : 3 min 31 s
    Bit rate : 253 kb/s
    Channel(s) : 2 channels
    Channel layout : L R
    Sampling rate : 48.0 kHz
    Frame rate : 46.875 FPS (1024 SPF)
    Compression mode : Lossy
    Stream size : 6.38 MiB (2%)
    Title : Kansai Studio MVO
    Language : Russian
    Default : Yes
    Forced : No
    Audio #2
    ID : 3
    Format : AAC LC
    Format/Info : Advanced Audio Codec Low Complexity
    Codec ID : A_AAC-2
    Duration : 3 min 31 s
    Bit rate : 192 kb/s
    Channel(s) : 2 channels
    Channel layout : L R
    Sampling rate : 48.0 kHz
    Frame rate : 46.875 FPS (1024 SPF)
    Compression mode : Lossy
    Stream size : 4.77 MiB (2%)
    Title : Shiza Project nDrOiDze Лизавета
    Language : Russian
    Default : No
    Forced : No
    Audio #3
    ID : 4
    Format : AAC LC
    Format/Info : Advanced Audio Codec Low Complexity
    Codec ID : A_AAC-2
    Duration : 3 min 31 s
    Bit rate : 192 kb/s
    Channel(s) : 2 channels
    Channel layout : L R
    Sampling rate : 48.0 kHz
    Frame rate : 46.875 FPS (1024 SPF)
    Compression mode : Lossy
    Stream size : 4.77 MiB (2%)
    Title : AniDub Jade Oni
    Language : Russian
    Default : No
    Forced : No
    Audio #4
    ID : 5
    Format : FLAC
    Format/Info : Free Lossless Audio Codec
    Codec ID : A_FLAC
    Duration : 3 min 31 s
    Bit rate mode : Variable
    Bit rate : 753 kb/s
    Channel(s) : 2 channels
    Channel layout : L R
    Sampling rate : 48.0 kHz
    Frame rate : 11.723 FPS (4095 SPF)
    Bit depth : 16 bits
    Compression mode : Lossless
    Stream size : 19.0 MiB (7%)
    Title : Original
    Writing library : libFLAC 1.3.2 (UTC 2017-01-01)
    Language : Japanese
    Default : No
    Forced : No
    Text #1
    ID : 6
    Format : ASS
    Codec ID : S_TEXT/ASS
    Codec ID/Info : Advanced Sub Station Alpha
    Duration : 1 min 42 s
    Bit rate : 32 b/s
    Count of elements : 8
    Compression mode : Lossless
    Stream size : 418 Bytes (0%)
    Title : Forced RisensTeam
    Language : Russian
    Default : No
    Forced : No
    Text #2
    ID : 7
    Format : ASS
    Codec ID : S_TEXT/ASS
    Codec ID/Info : Advanced Sub Station Alpha
    Duration : 3 min 27 s
    Bit rate : 212 b/s
    Count of elements : 77
    Compression mode : Lossless
    Stream size : 5.38 KiB (0%)
    Title : Full RisensTeam
    Language : Russian
    Default : No
    Forced : No
    Text #3
    ID : 8
    Format : ASS
    Codec ID : S_TEXT/ASS
    Codec ID/Info : Advanced Sub Station Alpha
    Duration : 1 min 36 s
    Bit rate : 28.4 kb/s
    Count of elements : 451
    Compression mode : Lossless
    Stream size : 335 KiB (0%)
    Title : Forced Tsundere
    Language : Russian
    Default : Yes
    Forced : No
    Text #4
    ID : 9
    Format : ASS
    Codec ID : S_TEXT/ASS
    Codec ID/Info : Advanced Sub Station Alpha
    Duration : 3 min 27 s
    Bit rate : 13.4 kb/s
    Count of elements : 520
    Compression mode : Lossless
    Stream size : 340 KiB (0%)
    Title : Full Tsundere
    Language : Russian
    Default : No
    Forced : No

    Время раздачи: С 8: 00 по 18: 00 МСК (до появления первых 3-5 скачавших)
    Понравился релиз? Ставь Оценку и нажми Спасибо
    Это серьёзно меня мотивирует делать подобные релизы.
    Если всем сердцем любишь аниме - подключайся и оставайся на раздаче максимально долго! Мои Релизы
    За ретайминг звука и субтитров огромное спасибо DS2902
    Полный список ретаймов
    Рейтинг →
     (голосов: 1, оценка 5/5, голосовать можно 1 раз )

    Другие торренты по теме:

  • Tachibanakan to Lie Angle | Любовные страсти пансиона Татибана [2018, TV, 12] BDrip 1080p raw


    • Комментарии (0):

      Информация

      Информация

        Посетители, находящиеся в группе Гости, не могут оставлять комментарии в данной новости.