Подписывайся на наш канал в Telegram https://t.me/torrentok и получи доступ к торрентам без ограничений!
.
Авторизация | Регистрация
torrent123.club


Маленькая принцесса (1997) DVDRip [H.264] торрент скачать бесплатно

Дата: 29-06-2020, 05:00 | .torrent скачали: 0

Маленькая принцесса (1997) DVDRip [H.264]Производство: Россия | Госкино, Фонд Ролана Быкова, Киностудия \'\'Глобус\'\'
Жанр: семейный, детский, мелодрама, экранизация
Режиссер: Владимир Грамматиков

Актеры
Анастасия Меськова, Лянка Грыу, Игорь Ясулович, Алла Демидова, Анна Терехова, Егор Грамматиков, Степан Деметр, Екатерина Михайловская, Мария Машкова, Анна Дякина, Алексей Баталов (рассказчик)

Описание

Капитан Кру привозит свою любимую дочь Сару, которую он называет маленькой принцессой, в один из лучших и самых дорогих пансионов, чтобы она получила хорошее образование. Сам он вынужден на время уехать. Добрая девочка сразу нашла в пансионе хороших подруг.
Ее полюбили все преподаватели, за исключением директрисы заведения мисс Минчин. Неожиданно в день своего рождения Сара узнает, что ее отец погиб, она осталась сиротой и на радость зловредной мисс Минчин абсолютно нищей.

Продолжительность: 01: 27: 23
Качество видео: DVDRip
Перевод: не требуется (Русский)
Субтитры: Отсутствуют
Видео: AVC/H.264, 660x554@704x554, ~2599 kbps
Аудио: AC3, 2 ch, 192 kbps - Русскийx264 info: frame I: 776 Avg QP: 15.75 size: 58631
x264 info: frame P: 26912 Avg QP: 17.60 size: 29681
x264 info: frame B: 103396 Avg QP: 18.37 size: 8312
x264 info: consecutive B-frames: 1.4% 1.9% 5.9% 13.1% 25.6% 45.4% 4.7% 1.1% 0.5% 0.3% 0.0%
Format : Matroska
Format version : Version 4
File size : 1.71 GiB
Duration : 1 h 27 min
Overall bit rate : 2 799 kb/s
Movie name : Маленькая принцесса (1997) - Rip by -{am}-
Encoded date : UTC 2020-06-20 18: 56: 59
Writing application : mkvmerge v7.2.0 (\'On Every Street\') 32bit built on Sep 13 2014 15: 42: 11
Writing library : libebml v1.3.0 + libmatroska v1.4.1
Attachments : poster.png
Video
ID : 1
Format : AVC
Format/Info : Advanced Video Codec
Format profile : High@L4.1
Format settings : CABAC/16 Ref Frames
Format settings, CABAC : Yes
Format settings, Reference : 16 frames
Codec ID : V_MPEG4/ISO/AVC
Duration : 1 h 27 min
Bit rate : 2 599 kb/s
Width : 660 pixels
Height : 554 pixels
Display aspect ratio : 1.271
Frame rate mode : Constant
Frame rate : 25.000 FPS
Color space : YUV
Chroma subsampling : 4: 2: 0
Bit depth : 8 bits
Scan type : Progressive
Bits/(Pixel*Frame) : 0.284
Stream size : 1.59 GiB (93%)
Title : Malenkaya.princessa.1997.{am}.704.Rus
Writing library : x264 core 160 r3007+53 ab26477 t_mod_New (8 10)-bit@all X86_64
Encoding settings : cabac=1/ref=16/deblock=1: -2: -1/analyse=0x3: 0x113/me=umh/subme=11/psy=1/fade_compensate=0.00/psy_rd=1.00: 0.20/mixed_ref=1/me_range=64/chroma_me=1/trellis=2/8x8dct=1/cqm=2/deadzone=21, 11/fast_pskip=0/chroma_qp_offset=-5/threads=17/lookahead_threads=4/sliced_threads=0/nr=0/decimate=0/interlaced=0/bluray_compat=0/constrained_intra=0/fgo=0/bframes=16/b_pyramid=2/b_adapt=2/b_bias=0/direct=3/weightb=1/open_gop=0/weightp=2/keyint=250/keyint_min=25/scenecut=40/intra_refresh=0/rc_lookahead=40/rc=crf/mbtree=0/crf=18.0000/qcomp=0.60/qpmin=0: 0: 0/qpmax=69: 69: 69/qpstep=4/vbv_maxrate=50000/vbv_bufsize=62500/crf_max=30.0/nal_hrd=none/filler=0/ip_ratio=1.40/pb_ratio=1.30/aq=3: 1.00/aq-sensitivity=10.00/aq-factor=1.00: 1.00: 1.00/aq2=0/aq3=0
Language : Russian
Default : Yes
Forced : No
Audio
ID : 2
Format : AC-3
Format/Info : Audio Coding 3
Commercial name : Dolby Digital
Codec ID : A_AC3
Duration : 1 h 27 min
Bit rate mode : Constant
Bit rate : 192 kb/s
Channel(s) : 2 channels
Channel layout : L R
Sampling rate : 48.0 kHz
Frame rate : 31.250 FPS (1536 SPF)
Compression mode : Lossy
Stream size : 120 MiB (7%)
Title : Original
Language : Russian
Service kind : Complete Main
Default : Yes
Forced : No
Menu
00: 00: 00.000 : : Глава 1
00: 11: 02.040 : : Глава 2
00: 21: 51.000 : : Глава 3
00: 32: 53.000 : : Глава 4
00: 44: 00.600 : : Глава 5
00: 54: 50.920 : : Глава 6
01: 05: 56.440 : : Глава 7
01: 15: 52.560 : : Глава 8

Скриншоты для ознакомления




Все одноименные релизы в Клубе
Время раздачи: 24/7 по мере возможности (до появления первых 3-5 скачавших)
Рейтинг →
 (голосов: 1, оценка 3/5, голосовать можно 1 раз )

Другие торренты по теме:

  • Маленькая принцесса / The little princess (1939) DVDRip скачать через торрент бесплатно
  • Маленькая принцесса / A Little Princess (1995) HDTVRip [H.264 / 720p-LQ]
  • Маленькая принцесса (1997) DVD5
  • Маленькая принцесса (1997) DVDRip
  • Маленькая принцесса (1997) DVDRip
  • Фрэнсис Элиза Бёрнетт | Маленькая принцесса (2019) [MP3]
  • Маленькая принцесса. Выпуск 2 {5+} (L) [Ru] (2008)
  • Маленькая принцесса. Выпуск 1 {5+} (L) [Ru] (2008)


    • Комментарии (0):

      Информация

      Информация

        Посетители, находящиеся в группе Гости, не могут оставлять комментарии в данной новости.