Подписывайся на наш канал в Telegram https://t.me/torrentok и получи доступ к торрентам без ограничений!
.
Авторизация | Регистрация
torrent123.club


Пушистые мошенники / Latte & The Magic Waterstone (2019) WEB-DL [H.264 / 720p-LQ] торрент скачать бесплатно

Дата: 29-06-2020, 05:00 | .torrent скачали: 0

Пушистые мошенники / Latte & The Magic Waterstone (2019) WEB-DL [H.264 / 720p-LQ]Производство: Германия/Dreamin\' Dolphin Film, Eagle Eye Filmproduktion, Grid Animation
Жанр: Мультфильм, комедия, приключения, семейный
Режиссер: Мими Мэйнард, Реджина Велкер, Нина Вельс
Продюсер: Лилиан Клагес, Томас Г. Мюллер, Симон Й. Бюхнер

Актеры
Луиза Вицорек, Тим Шварцмайер, Хеннинг Баум, Михаэль Дефферт, Эрик Сале, Тимур Бартельс, Регина Лемниц, Геральд Шаале

Описание
Бельчонок Тьюм и дерзкая и бесстрашная ежиха Латте хотят похитить особенный бриллиант у короля медведей Бантура. Придумывая разные уловки, они идут к своей цели, но главарь банды волков — Лупо и Рысь, пытаются им помешать и забрать камень себе.

Возраст: 6+ (зрителям, достигшим 6 лет)
Дата мировой премьеры: 9 октября 2019
Дата российской премьеры: 27 февраля 2020, Ten Letters
Цифровой релиз: 19 июня 2020, Ten Letters
Релиз от: TeamHD
Продолжительность: 01: 21: 47
Качество видео: WEB-DL 720p
Перевод: Профессиональный (дублированный)(iTunes)
Субтитры: Нет
Видео: AVC/H.264, 1280x720, 4011 Kbps, 24.000 fps
Аудио : AC-3, 6 ch, 384 Kbps | Русский
General
Unique ID : 90695404700486273117837240940453030606 (0x443B4CB0D294FB1AD627856DFE71EACE)
Complete name : /Volumes/Promise Pegasus/Latte.and.The.Magic.Waterstone.WEB-DL.720p.mkv
Format : Matroska
Format version : Version 4
File size : 2.51 GiB
Duration : 1h 21mn
Overall bit rate : 4 397 Kbps
Movie name : Latte and The Magic Waterstone WEB-DL 720p
Encoded date : UTC 2020-06-28 14: 19: 10
Writing application : mkvmerge v48.0.0 (\'Fortress Around Your Heart\') 64-bit
Writing library : libebml v1.4.0 + libmatroska v1.6.0
Cover : Yes
Attachments : cover.jpg
Video
ID : 1
Format : AVC
Format/Info : Advanced Video Codec
Format profile : High@L3.1
Format settings : 2 Ref Frames
Format settings, CABAC : No
Format settings, ReFrames : 2 frames
Codec ID : V_MPEG4/ISO/AVC
Duration : 1h 21mn
Bit rate : 4 011 Kbps
Width : 1 280 pixels
Height : 720 pixels
Display aspect ratio : 16: 9
Frame rate mode : Constant
Frame rate : 24.000 fps
Color space : YUV
Chroma subsampling : 4: 2: 0
Bit depth : 8 bits
Scan type : Progressive
Bits/(Pixel*Frame) : 0.181
Stream size : 2.29 GiB (91%)
Language : German
Default : Yes
Forced : No
Color range : Limited
Color primaries : BT.709
Transfer characteristics : BT.709
Matrix coefficients : BT.709
Audio
ID : 2
Format : AC-3
Format/Info : Audio Coding 3
Commercial name : Dolby Digital
Codec ID : A_AC3
Duration : 1h 21mn
Bit rate mode : Constant
Bit rate : 384 Kbps
Channel(s) : 6 channels
Channel layout : L R C LFE Ls Rs
Sampling rate : 48.0 KHz
Frame rate : 31.250 fps (1536 SPF)
Compression mode : Lossy
Stream size : 225 MiB (9%)
Title : Russian DUB iTunes
Language : Russian
Service kind : Complete Main
Default : Yes
Forced : No
Menu
00: 00: 00.000 : en: Глава 1
00: 08: 06.166 : en: Глава 2
00: 16: 21.291 : en: Глава 3
00: 24: 51.541 : en: Глава 4
00: 33: 17.041 : en: Глава 5
00: 41: 24.749 : en: Глава 6
00: 49: 32.207 : en: Глава 7
00: 57: 34.207 : en: Глава 8
01: 05: 56.873 : en: Глава 9
01: 13: 55.956 : en: Глава 10

Скриншоты для ознакомления



Все одноименные релизы в Клубе
Время раздачи: 24/7 (круглосуточно) (до появления первых 3-5 скачавших)

Онлайн видео Пушистые мошенники

Рейтинг →
 (голосов: 1, оценка 3/5, голосовать можно 1 раз )

Другие торренты по теме:

  • Пушистые мошенники / Latte & The Magic Waterstone (2019) WEB-DL [H.264 / 1080p-LQ]


    • Комментарии (0):

      Информация

      Информация

        Посетители, находящиеся в группе Гости, не могут оставлять комментарии в данной новости.