Подписывайся на наш канал в Telegram https://t.me/torrentok и получи доступ к торрентам без ограничений!
.
Авторизация | Регистрация
torrent123.club
Торрент трекер | Скачать торрент | Скачать Через Торрент | Скачать торрент бесплатно | Скачать торрент без регистрации Мультфильмы торрент скачать Human Lost: Ningen Shikkaku | Human Lost: Исповедь неполноценного человека [2019, Movie] BDRip 804 10bit raw торрент скачать бесплатно


    Human Lost: Ningen Shikkaku | Human Lost: Исповедь неполноценного человека [2019, Movie] BDRip 804 10bit raw торрент скачать бесплатно

    Дата: 29-06-2020, 05:00 | .torrent скачали: 0

    Human Lost: Ningen Shikkaku | Human Lost: Исповедь неполноценного человека [2019, Movie] BDRip 804 10bit rawЖанр: драма, киберпанк
    Тип: полнометражный фильм
    Продолжительность: 110 мин.
    Выпуск: 22.10.2019
    Производство: студияPolygon Pictures/ポリゴン・ピクチュアズ
    Автор оригинала: Дадзай Осаму
    Режиссер: Кидзаки Фуминори
    Ссылки: World-Art, ANN, AniDB, MyAnimeList

    Описание

    Токио, 2036 год. Революционные медицинские технологии победили смерть: при помощи внутренних наноустройств, которые контролируются системой S.H.E.L.L., человек гарантированно может прожить 120 лет, не болея и не нуждаясь в лечении травм. Это привело к социальному и экономическому расслоению, падению морали, деградации общества и сильному загрязнению окружающей среды. Также появился феномен потери человечности, когда люди, отключённые от S.H.E.L.L., становятся увечными и уродливыми. Наркоман и отброс Оба Ёдзу, уже практически находясь на дне жизни, внезапно обнаруживает в себе невероятные способности.
    Качество видео: BDRip
    Видео: HEVC (Main 10@L4@Main) 10 bit, 1920x804 (2.40: 1), ~23.976 fps, ~14.4 Mbps
    Аудио: FLAC, 6 ch, 48 kHz, 24 bit, ~2913 kbps |Звук: Японский
    Язык озвучки: Японский
    Субтитры: Русские
    Перевод: Анна Панина

    Скриншоты для ознакомления




    General
    Unique ID : 237204272714227099837908435225303370549 (0xB273E194BAEDCD0BB087ED2E6E7CCB35)
    Complete name : Human Lost BDRip 1920x1080 HEVC FLACBeatrice-Raws Human Lost BDRip 1920x804 HEVC FLAC.mkv
    Format : Matroska
    Format version : Version 4
    File size : 13.3 GiB
    Duration : 1 h 49 min
    Overall bit rate mode : Variable
    Overall bit rate : 17.3 Mb/s
    Encoded date : UTC 2020-06-16 23: 09: 30
    Writing application : mkvmerge v47.0.0 (\'Black Flag\') 64-bit
    Writing library : libebml v1.3.10 + libmatroska v1.5.2
    Video
    ID : 1
    Format : HEVC
    Format/Info : High Efficiency Video Coding
    Format profile : Main 10@L4@Main
    Codec ID : V_MPEGH/ISO/HEVC
    Duration : 1 h 49 min
    Bit rate : 14.4 Mb/s
    Width : 1 920 pixels
    Height : 804 pixels
    Display aspect ratio : 2.40: 1
    Frame rate mode : Constant
    Frame rate : 23.976 (24000/1001) FPS
    Color space : YUV
    Chroma subsampling : 4: 2: 0
    Bit depth : 10 bits
    Bits/(Pixel*Frame) : 0.388
    Stream size : 11.0 GiB (83%)
    Title : BDrip by Jensen
    Writing library : x265 3.4+1-7b120308dc64: WindowsMSVC 192664 bit 10bit
    Encoding settings : cpuid=1049583/frame-threads=16/numa-pools=24, 24/wpp/pmode/pme/no-psnr/no-ssim/log-level=2/csv/csv-log-level=2/input-csp=1/input-res=1920x804/interlace=0/total-frames=0/level-idc=0/high-tier=1/uhd-bd=0/ref=4/no-allow-non-conformance/no-repeat-t_heads/annexb/no-aud/no-hrd/info/hash=0/no-temporal-layers/open-gop/min-keyint=23/keyint=240/gop-lookahead=0/bframes=6/b-adapt=2/b-pyramid/bframe-bias=0/rc-lookahead=20/lookahead-slices=5/scenecut=40/hist-scenecut=0/radl=0/no-splice/no-intra-refresh/ctu=64/min-cu-size=8/no-rect/no-amp/max-tu-size=32/tu-inter-depth=2/tu-intra-depth=2/limit-tu=0/rdoq-level=2/dynamic-rd=0.00/no-ssim-rd/signhide/no-tskip/nr-intra=0/nr-inter=0/no-constrained-intra/no-strong-intra-smoothing/max-merge=3/limit-refs=1/limit-modes/me=3/subme=5/merange=48/temporal-mvp/no-frame-dup/no-hme/weightp/weightb/no-analyze-src-pics/deblock=1: -1/no-sao/no-sao-non-deblock/rd=5/selective-sao=0/no-early-skip/no-rskip/no-fast-intra/no-tskip-fast/no-cu-lossless/b-intra/no-splitrd-skip/rdpenalty=0/psy-rd=2.00/psy-rdoq=4.00/no-rd-refine/no-lossless/cbqpoffs=-2/crqpoffs=-2/rc=crf/crf=16.0/qcomp=0.60/qpstep=4/stats-write=0/stats-read=0/ipratio=1.40/pbratio=1.30/aq-mode=4/aq-strength=0.86/no-cutree/zone-count=0/no-strict-cbr/qg-size=32/no-rc-grain/qpmax=69/qpmin=0/no-const-vbv/sar=1/overscan=0/videoformat=5/range=0/colorprim=1/transfer=1/colormatrix=1/chromaloc=0/display-window=0/cll=0, 0/min-luma=0/max-luma=1023/log2-max-poc-lsb=8/vui-timing-info/vui-hrd-info/slices=1/no-opt-qp-pps/no-opt-ref-list-length-pps/no-multi-pass-opt-rps/scenecut-bias=0.05/hist-threshold=0.01/no-opt-cu-delta-qp/no-aq-motion/no-hdr10/no-hdr10-opt/no-dhdr10-opt/no-idr-recovery-sei/analysis-reuse-level=0/analysis-save-reuse-level=0/analysis-load-reuse-level=0/scale-factor=0/refine-intra=0/refine-inter=0/refine-mv=1/refine-ctu-distortion=0/no-limit-sao/ctu-info=0/no-lowpass-dct/refine-analysis-type=0/copy-pic=1/max-ausize-factor=1.0/no-dynamic-refine/no-single-sei/hevc-aq/no-svt/no-field/qp-adaptation-range=4.00/no-scenecut-aware-qpconformance-window-offsets/right=0/bottom=0/decoder-max-rate=0
    Language : Japanese
    Default : Yes
    Forced : No
    Color range : Limited
    Color primaries : BT.709
    Transfer characteristics : BT.709
    Matrix coefficients : BT.709
    Audio
    ID : 2
    Format : FLAC
    Format/Info : Free Lossless Audio Codec
    Codec ID : A_FLAC
    Duration : 1 h 49 min
    Bit rate mode : Variable
    Bit rate : 2 913 kb/s
    Channel(s) : 6 channels
    Channel layout : L R C LFE Ls Rs
    Sampling rate : 48.0 kHz
    Frame rate : 11.719 FPS (4096 SPF)
    Bit depth : 24 bits
    Compression mode : Lossless
    Stream size : 2.24 GiB (17%)
    Writing library : CUETools FLACCL 2.1.6
    Language : Japanese
    Default : Yes
    Forced : No
    Menu
    00: 00: 00.000 : en: Avant
    00: 07: 39.459 : en: OP
    00: 13: 41.487 : en: Part A
    00: 25: 28.485 : en: Part B
    00: 33: 52.864 : en: Part C
    00: 41: 32.657 : en: Part D
    01: 00: 07.437 : en: Part E
    01: 10: 32.061 : en: Part F
    01: 21: 56.620 : en: Part G
    01: 30: 02.814 : en: Part H
    01: 40: 48.334 : en: Part I
    01: 45: 03.297 : en: END
    Время раздачи: круглосуточно

    Онлайн видео Human Lost: Ningen Shikkaku

    Рейтинг →
     (голосов: 1, оценка 3/5, голосовать можно 1 раз )

    Другие торренты по теме:

  • Human Lost: Ningen Shikkaku | No Longer Human | Human Lost: Исповедь неполноценного человека [2019, Movie] WEB-DL 1080p raw+rus


    • Комментарии (0):

      Информация

      Информация

        Посетители, находящиеся в группе Гости, не могут оставлять комментарии в данной новости.