Подписывайся на наш канал в Telegram https://t.me/torrentok и получи доступ к торрентам без ограничений!
.
Авторизация | Регистрация
torrent123.club


Dorohedoro | Дорохедоро [2020, OVA, 1 эп.] BDRip 1080p raw торрент скачать бесплатно

Дата: 29-06-2020, 05:00 | .torrent скачали: 0

Dorohedoro | Дорохедоро [2020, OVA, 1 эп.] BDRip 1080p rawЖанр: приключения, фэнтези, чёрная комедия
Тип: OVA
Продолжительность: 1 эп. по 25 мин.
Количество серий: 1 из 1
Выпуск: 17.06.2020
Производство: студияMAPPA Токио
Автор оригинала: Хаясида Кю
Режиссер: Хаяси Юйтиро
Ссылки: World-Art, ANN, AniDB, MyAnimeList

Описание

В злачном городе Дыре живёт ящероголовый Кайман. Не то чтобы он хотел быть ящероголовым или помнил, как таким стал. Всё, что он знает: его заколдовал один из магов, прибывших в Дыру для тренировки своих способностей, а чтобы вернуть себе память и прежний облик, нужно убить виновника, на которого укажет чувак в глотке Каймана. Потому ящероголовый и решает начать охоту на магов — в надежде найти того самого засранца и откусить ему башку, наконец-то услышав желанный ответ на вопрос: Что сказал чувак в моей глотке?
Дополнительный эпизод с БД.
Качество видео: BDRip
Видео: AVC (Main@L4.1), 1920x1080 (16: 9), ~23.976 fps, ~18.3 Mbps
Аудио: AC-3, 2 ch, 48 kHz, ~192 kbps |Звук: Японский
Язык озвучки: Японский
Субтитры: Русские
Перевод: SovetRomantica

Скриншоты для ознакомления




General
Unique ID : 337949057860621262845140277283061730606 (0xFE3E9EFB3D8349E14D870748A4C78D2E)
Complete name : Dorohedoro OVA BDRip 1080Dorohedoro OVA.mkv
Format : Matroska
Format version : Version 4
File size : 3.25 GiB
Duration : 25 min 28 s
Overall bit rate : 18.3 Mb/s
Encoded date : UTC 2020-06-19 21: 40: 20
Writing application : mkvmerge v42.0.0 (\'Overtime\') 64-bit
Writing library : libebml v1.3.10 + libmatroska v1.5.2
Cover : Yes
Attachments : cover.jpg
Video
ID : 1
Format : AVC
Format/Info : Advanced Video Codec
Format profile : Main@L4.1
Format settings : 1 Ref Frames
Format settings, CABAC : No
Format settings, Reference : 1 frame
Codec ID : V_MPEG4/ISO/AVC
Duration : 25 min 28 s
Bit rate : 18.3 Mb/s
Width : 1 920 pixels
Height : 1 080 pixels
Display aspect ratio : 16: 9
Frame rate mode : Constant
Frame rate : 23.976 (23976/1000) FPS
Original frame rate : 23.976 (24000/1001) FPS
Color space : YUV
Chroma subsampling : 4: 2: 0
Bit depth : 8 bits
Scan type : Progressive
Bits/(Pixel*Frame) : 0.367
Stream size : 3.22 GiB (99%)
Writing library : x264 core 148
Encoding settings : cabac=0/ref=1/deblock=1: 0: 0/analyse=0x1: 0x111/me=umh/subme=7/psy=0/mixed_ref=0/me_range=12/chroma_me=1/trellis=0/8x8dct=0/cqm=0/deadzone=21, 11/fast_pskip=0/chroma_qp_offset=0/threads=8/lookahead_threads=1/sliced_threads=0/nr=0/decimate=1/interlaced=0/bluray_compat=0/constrained_intra=0/bframes=0/weightp=2/keyint=24/keyint_min=13/scenecut=40/intra_refresh=0/rc_lookahead=20/rc=cbr/mbtree=0/bitrate=18258/ratetol=1.0/qcomp=0.60/qpmin=0/qpmax=69/qpstep=4/vbv_maxrate=18258/vbv_bufsize=18258/nal_hrd=none/filler=0/ip_ratio=1.40/aq=1: 1.00
Language : English
Default : Yes
Forced : No
Color range : Limited
Color primaries : BT.709
Transfer characteristics : BT.709
Matrix coefficients : BT.709
Audio
ID : 2
Format : AC-3
Format/Info : Audio Coding 3
Commercial name : Dolby Digital
Codec ID : A_AC3
Duration : 25 min 28 s
Bit rate mode : Constant
Bit rate : 192 kb/s
Channel(s) : 2 channels
Channel layout : L R
Sampling rate : 48.0 kHz
Frame rate : 31.250 FPS (1536 SPF)
Compression mode : Lossy
Stream size : 35.0 MiB (1%)
Language : Japanese
Service kind : Complete Main
Default : Yes
Forced : No
Text
ID : 3
Format : ASS
Codec ID : S_TEXT/ASS
Codec ID/Info : Advanced Sub Station Alpha
Duration : 24 min 15 s
Bit rate : 126 b/s
Count of elements : 461
Compression mode : Lossless
Stream size : 22.5 KiB (0%)
Title : English
Language : English
Default : Yes
Forced : Yes
Menu
00: 00: 00.000 : en: Extra Evil
00: 00: 12.721 : en: Mask Disparities
00: 03: 48.937 : en: A Shop for You
00: 09: 06.254 : en: A Low Level\'s Youth - Graffiti -
00: 12: 36.464 : en: The Gyoza Fairy That You Don\'t Know
00: 16: 55.723 : en: Evil Dancing Masquerade Ball
00: 22: 17.044 : en: Blowin\' in the Night Breeze, an Oba Anniversary
00: 24: 21.168 : en: Ending Song
Время раздачи: круглосуточно
Рейтинг →
 (голосов: 1, оценка 4/5, голосовать можно 1 раз )

Другие торренты по теме:

  • Dorohedoro | Дорохедоро [2020, TV, 1 из 12 эп.] HDTV 720p raw


    • Комментарии (0):

      Информация

      Информация

        Посетители, находящиеся в группе Гости, не могут оставлять комментарии в данной новости.