Подписывайся на наш канал в Telegram https://t.me/torrentok и получи доступ к торрентам без ограничений!
.
Авторизация | Регистрация
torrent123.club


Carnival Phantasm | Карнавальный Фантазм [2011, TV, 12 ep + 2 SP + OVA] BDRip 1080p raw+rus торрент скачать бесплатно

Дата: 29-06-2020, 05:00 | .torrent скачали: 0

Carnival Phantasm | Карнавальный Фантазм [2011, TV, 12 ep + 2 SP + OVA] BDRip 1080p raw+rusТип: TV
Жанр: Приключения, Комедия, Фантастика, Этти
Продолжительность: 12 Эпизодов по 14 Мин; 1 Эпизод 20 Мин; 1 Эпизод 26 Мин.
Количество серий: 15 Эпизодов
Дата выпуска: c12.08.2011 по31.12.2011
Автор оригинала: Такэнаси Эри
Режиссер: Киси Сэйдзи
Производство: Lerche, Япония

World-Art | AniDB | MyAnimelist | Shikimori

Описание

Адаптация манги Тейк Мун, придуманной Эри Такэнаси. Представляет собой набор пародий на работы студии Type-Moon, такие как Судьба/Ночь схватки, Повесть о лунной принцессе, Талая кровь и др. Знакомые нам персонажи предстают перед нами в весьма неожиданных и смешных амплуа, иронизируют над ошибками оригиналов, словом, делают всё то, что и должны делать персонажи добротной, качественной комедии.
Автор: Holy Diver ©Shikimori
Видео Сэмпл: Скачать сЯндекс.Диск
Качество Видео: BDRip
Видео: AVC / x264 , 1920x1080, 23.976 fps, 5 788 kb/s, 0.116 bpp 8-bit
Язык Озвучки: Японский и Русский
Озвучка: Одноголосая, Двухголосая закадровая
TV
Аудио №1: AAC2.0 , 48.0 kHz, 320 kb/s( AniMedia ) |Язык:
Аудио №2: AAC2.0 , 48.0 kHz, 192 kb/s( OpenDub ) |Язык:
Аудио №3: AAC2.0 , 48.0 kHz, 192 kb/s( AniDub ) |Язык:
Аудио №4: FLAC2.0 , 48.0 kHz, 879 kb/s 16-Bit( AniFilm ) |Язык:
Аудио №5: FLAC2.0 , 48.0 kHz, 790 kb/s 16-Bit( Original ) |Язык:
EX Season
Аудио №1: AC32.0 , 48.0 kHz, 192 kb/s( AniFilm ) |Язык:
Аудио №2: AAC2.0 , 48.0 kHz, 192 kb/s( AniDub ) |Язык:
Аудио №3: AAC2.0 , 48.0 kHz, 192 kb/s( OpenDub ) |Язык:
Аудио №4: FLAC2.0 , 48.0 kHz, 749 kb/s 16-Bit( Original ) |Язык:
HibiChika
Аудио №1: AC32.0 , 48.0 kHz, 320 kb/s( AniFilm ) |Язык:
Аудио №2: FLAC2.0 , 48.0 kHz, 678 kb/s 16-Bit( Original ) |Язык:
Субтитры: Надписи, Полные( Korochun ) , ( Advantage )
Скриншоты:


TV

EX Season


HibiChika



01 . The 5th Great Clash of the Magicians The Holy Grail War (Великая битва магов пятая война Святого Грааля)
02 . Thump! Melty Blood (Тук! Мелти блад)
03 . It`s a Daydream Everywhere (Мечты повсюду)
04 . Badump Date Super Plan (Волнительное свидание, грандиозный план!)
05 . Berserker`s First Errand (Первое поручение Берсеркера)
06 . Type Moon Monthly TV Novella Sakura (Type Moon ТВ-сериал Сакура)
07 . An Expert`s Gift (Дар мудреца)
08 . Saber at Work (Сэйбер на работе)
09 . Holy Grail Grand Prix (Гран-при Святого Грааля)
10 . Brainwash Detective Loli Reversion (Мозгопромывающий детектив. Обращение в лоли)
11 . Final Dead Lancer (Окончательно Мертвый Лансер)
12 . Badump Date Super Plan Answer (Суперплан Бадум Свидания - Решение)
13 . Ilya\'s Castle Voiced Ver (Замок Илии)
14 . EX Season (Прошлый Сезон)
15 . HibiChika (ХибиЧика)

01) Shingetsutan Tsukihime(Релиз возможен)
02) Fate/stay night(Релиз возможен)
03) Fate/stay night Movie: Unlimited Blade Works(Релиз возможен)
04) Carnival Phantasm(Эта Раздача)
05) Fate/Zero(Релиз возможен)
06) Carnival Phantasm: Illya-jou(Эта Раздача)
07) Carnival Phantasm EX Season(Эта Раздача)
08) Fate/Prototype(Релиз возможен)
09) Fate/Zero 2nd Season(Релиз возможен)
10) Carnival Phantasm: HibiChika Special(Эта Раздача)
11) Fate/kaleid liner Prisma☆Illya(Релиз возможен)
12) Fate/kaleid liner Prisma☆Illya Specials(Релиз возможен)
13) Fate/kaleid liner Prisma☆Illya: Undoukai de Dance!(Релиз возможен)
14) Fate/kaleid liner Prisma☆Illya 2wei!(Релиз возможен)
15) Fate/stay night: Unlimited Blade Works Prologue(Релиз возможен)
16) Fate/stay night: Unlimited Blade Works(Релиз возможен)
17) Fate/stay night: Unlimited Blade Works 2nd Season(Релиз возможен)
18) Fate/kaleid liner Prisma☆Illya 2wei!: Mahou Shoujo in Onsen Ryokou(Релиз возможен)
19) Fate/kaleid liner Prisma☆Illya 2wei Herz!(Релиз возможен)
20) Fate/stay night: Unlimited Blade Works 2nd Season - Sunny Day(Релиз возможен)
21) Fate/kaleid liner Prisma☆Illya 3rei!!(Релиз возможен)
22) Fate/Grand Order: First Order(Релиз возможен)
23) Fate/Apocrypha(Релиз возможен)
24) Fate/kaleid liner Prisma☆Illya Movie: Sekka no Chikai(Релиз возможен)
25) Fate/stay night Movie: Heaven\'s Feel - I. Presage Flower(Релиз возможен)
26) Fate/Grand Order: Moonlight/Lostroom(Релиз возможен)
27) Emiya-san Chi no Kyou no Gohan(Релиз возможен)
28) Fate/Extra: Last Encore(Релиз возможен)
29) Fate/Extra: Last Encore - Illustrias Tendousetsu(Релиз возможен)
30) Lord El-Melloi II Sei no Jikenbo: Rail Zeppelin Grace Note - Hakamori to Neko to Majutsushi(Релиз возможен)
31) Manga de Wakaru! Fate/Grand Order(Релиз возможен)
32) Fate/stay night Movie: Heaven\'s Feel - II. Lost Butterfly(Релиз возможен)
33) Fate/kaleid liner Prisma☆Illya: Prisma☆Phantasm(Релиз возможен)
34) Lord El-Melloi II Sei no Jikenbo: Rail Zeppelin Grace Note(Релиз возможен)
35) Fate/Grand Order: Zettai Majuu Sensen Babylonia - Initium Iter(Релиз возможен)
36) Fate/Grand Order: Zettai Majuu Sensen Babylonia(Релиз возможен)
37) Fate/stay night Movie: Heaven\'s Feel - III. Spring Song(Релиз возможен)
38) Fate/Grand Order: Shinsei Entaku Ryouiki Camelot 2 - Paladin; Agateram(Релиз возможен)
39) Fate/Grand Order: Shinsei Entaku Ryouiki Camelot 1 - Wandering; Agateram(Релиз возможен)
40) Fate/Grand Order: Shuukyoku Tokuiten - Kani Jikan Shinden Solomon(Релиз возможен)


General
Unique ID : 35530565411759072493977830219058867942 (0x1ABAF01FE656499D71A0713B51396EE6)
Complete name : J: АнимеКарнавальный Фантазм BDRip (2011)1 . The 5th Great Clash of the Magicians The Holy Grail War (Великая битва магов пятая война Святого Грааля).mkv
Format : Matroska
Format version : Version 4
File size : 774 MiB
Duration : 13 min 15 s
Overall bit rate mode : Variable
Overall bit rate : 8 167 kb/s
Encoded date : UTC 2020-06-24 16: 05: 29
Writing application : mkvmerge v47.0.0 (\'Black Flag\') 64-bit
Writing library : libebml v1.3.10 + libmatroska v1.5.2
Attachments : AGPmode.ttf/BenguiatGothicCTT.ttf/Bolid.ttf
Video
ID : 1
Format : AVC
Format/Info : Advanced Video Codec
Format profile : High@L5
Format settings : CABAC/5 Ref Frames
Format settings, CABAC : Yes
Format settings, Reference : 5 frames
Codec ID : V_MPEG4/ISO/AVC
Duration : 13 min 15 s
Bit rate : 5 788 kb/s
Width : 1 920 pixels
Height : 1 080 pixels
Display aspect ratio : 16: 9
Frame rate mode : Constant
Frame rate : 23.976 (24000/1001) FPS
Color space : YUV
Chroma subsampling : 4: 2: 0
Bit depth : 8 bits
Scan type : Progressive
Bits/(Pixel*Frame) : 0.116
Stream size : 549 MiB (71%)
Writing library : x264 core 148 r2638 7599210
Encoding settings : cabac=1/ref=5/deblock=1: 1: 1/analyse=0x3: 0x113/me=umh/subme=9/psy=1/psy_rd=0.70: 0.00/mixed_ref=1/me_range=32/chroma_me=1/trellis=0/8x8dct=1/cqm=0/deadzone=21, 11/fast_pskip=0/chroma_qp_offset=-2/threads=12/lookahead_threads=1/sliced_threads=0/nr=0/decimate=1/interlaced=0/bluray_compat=0/constrained_intra=0/bframes=3/b_pyramid=2/b_adapt=2/b_bias=0/direct=1/weightb=1/open_gop=0/weightp=2/keyint=240/keyint_min=23/scenecut=40/intra_refresh=0/rc_lookahead=40/rc=crf/mbtree=1/crf=16.0/qcomp=0.60/qpmin=0/qpmax=69/qpstep=4/ip_ratio=1.40/aq=1: 1.00
Language : Japanese
Default : Yes
Forced : No
Audio #1
ID : 2
Format : AAC LC
Format/Info : Advanced Audio Codec Low Complexity
Codec ID : A_AAC-2
Duration : 13 min 15 s
Bit rate : 320 kb/s
Channel(s) : 2 channels
Channel layout : L R
Sampling rate : 48.0 kHz
Frame rate : 46.875 FPS (1024 SPF)
Compression mode : Lossy
Stream size : 30.3 MiB (4%)
Title : AniMedia Eladiel Jam
Language : Russian
Default : Yes
Forced : No
Audio #2
ID : 3
Format : AAC LC
Format/Info : Advanced Audio Codec Low Complexity
Codec ID : A_AAC-2
Duration : 13 min 15 s
Bit rate : 192 kb/s
Channel(s) : 2 channels
Channel layout : L R
Sampling rate : 48.0 kHz
Frame rate : 46.875 FPS (1024 SPF)
Compression mode : Lossy
Stream size : 18.2 MiB (2%)
Title : OpenDub JeFerSon
Language : Russian
Default : No
Forced : No
Audio #3
ID : 4
Format : AAC LC
Format/Info : Advanced Audio Codec Low Complexity
Codec ID : A_AAC-2
Duration : 13 min 15 s
Bit rate : 192 kb/s
Channel(s) : 2 channels
Channel layout : L R
Sampling rate : 48.0 kHz
Frame rate : 46.875 FPS (1024 SPF)
Compression mode : Lossy
Stream size : 18.2 MiB (2%)
Title : AniDub Trina_D
Language : Russian
Default : No
Forced : No
Audio #4
ID : 5
Format : FLAC
Format/Info : Free Lossless Audio Codec
Codec ID : A_FLAC
Duration : 13 min 15 s
Bit rate mode : Variable
Bit rate : 879 kb/s
Channel(s) : 2 channels
Channel layout : L R
Sampling rate : 48.0 kHz
Frame rate : 11.719 FPS (4096 SPF)
Bit depth : 16 bits
Compression mode : Lossless
Stream size : 83.3 MiB (11%)
Title : AniFilm DemonOFmooN, Lali
Writing library : libFLAC 1.1.4 (UTC 2007-02-13)
Language : Russian
Default : No
Forced : No
Audio #5
ID : 6
Format : FLAC
Format/Info : Free Lossless Audio Codec
Codec ID : A_FLAC
Duration : 13 min 15 s
Bit rate mode : Variable
Bit rate : 790 kb/s
Channel(s) : 2 channels
Channel layout : L R
Sampling rate : 48.0 kHz
Frame rate : 11.719 FPS (4096 SPF)
Bit depth : 16 bits
Compression mode : Lossless
Stream size : 74.9 MiB (10%)
Title : Original
Writing library : libFLAC 1.2.1 (UTC 2007-09-17)
Language : Japanese
Default : No
Forced : No
Text #1
ID : 7
Format : ASS
Codec ID : S_TEXT/ASS
Codec ID/Info : Advanced Sub Station Alpha
Duration : 13 min 0 s
Bit rate : 142 b/s
Count of elements : 139
Compression mode : Lossless
Stream size : 13.6 KiB (0%)
Title : Forced Advantage
Language : Russian
Default : Yes
Forced : No
Text #2
ID : 8
Format : ASS
Codec ID : S_TEXT/ASS
Codec ID/Info : Advanced Sub Station Alpha
Duration : 13 min 14 s
Bit rate : 271 b/s
Count of elements : 305
Compression mode : Lossless
Stream size : 26.3 KiB (0%)
Title : Full Advantage
Language : Russian
Default : No
Forced : No
Menu
00: 00: 00.000 : en: Prologue
00: 01: 28.130 : en: OP
00: 03: 03.725 : en: Part A
00: 09: 53.301 : en: Part B
00: 10: 02.310 : en: Part C
00: 10: 55.989 : en: ED
00: 12: 26.079 : en: Preview



General
Unique ID : 88605017194610449306291778314846694472 (0x42A8B4A123E56BD3C0DCE2B017C16C48)
Complete name : J: АнимеКарнавальный Фантазм BDRip (2011)14 (Carnival Phantasm Special). EX Season (Прошлый Сезон).mkv
Format : Matroska
Format version : Version 4
File size : 962 MiB
Duration : 20 min 24 s
Overall bit rate mode : Variable
Overall bit rate : 6 586 kb/s
Encoded date : UTC 2020-06-24 16: 43: 22
Writing application : mkvmerge v47.0.0 (\'Black Flag\') 64-bit
Writing library : libebml v1.3.10 + libmatroska v1.5.2
Attachments : Arlekino.ttf/consola.ttf/DS Sholom.ttf/linkin.ttf
Video
ID : 1
Format : AVC
Format/Info : Advanced Video Codec
Format profile : High@L5
Format settings : CABAC/5 Ref Frames
Format settings, CABAC : Yes
Format settings, Reference : 5 frames
Codec ID : V_MPEG4/ISO/AVC
Duration : 20 min 24 s
Bit rate : 5 253 kb/s
Width : 1 920 pixels
Height : 1 080 pixels
Display aspect ratio : 16: 9
Frame rate mode : Constant
Frame rate : 23.976 (24000/1001) FPS
Color space : YUV
Chroma subsampling : 4: 2: 0
Bit depth : 8 bits
Scan type : Progressive
Bits/(Pixel*Frame) : 0.106
Stream size : 767 MiB (80%)
Writing library : x264 core 148 r2638 7599210
Encoding settings : cabac=1/ref=5/deblock=1: 1: 1/analyse=0x3: 0x113/me=umh/subme=9/psy=1/psy_rd=0.70: 0.00/mixed_ref=1/me_range=32/chroma_me=1/trellis=0/8x8dct=1/cqm=0/deadzone=21, 11/fast_pskip=0/chroma_qp_offset=-2/threads=12/lookahead_threads=1/sliced_threads=0/nr=0/decimate=1/interlaced=0/bluray_compat=0/constrained_intra=0/bframes=3/b_pyramid=2/b_adapt=2/b_bias=0/direct=1/weightb=1/open_gop=0/weightp=2/keyint=240/keyint_min=23/scenecut=40/intra_refresh=0/rc_lookahead=40/rc=crf/mbtree=1/crf=16.0/qcomp=0.60/qpmin=0/qpmax=69/qpstep=4/ip_ratio=1.40/aq=1: 1.00
Language : Japanese
Default : Yes
Forced : No
Audio #1
ID : 2
Format : AC-3
Format/Info : Audio Coding 3
Commercial name : Dolby Digital
Codec ID : A_AC3
Duration : 20 min 17 s
Bit rate mode : Constant
Bit rate : 192 kb/s
Channel(s) : 2 channels
Channel layout : L R
Sampling rate : 48.0 kHz
Frame rate : 31.250 FPS (1536 SPF)
Compression mode : Lossy
Stream size : 27.9 MiB (3%)
Title : AniFilm DemonOFmooN Lali
Language : Russian
Service kind : Complete Main
Default : Yes
Forced : No
Audio #2
ID : 3
Format : AAC LC
Format/Info : Advanced Audio Codec Low Complexity
Codec ID : A_AAC-2
Duration : 20 min 17 s
Bit rate : 192 kb/s
Channel(s) : 2 channels
Channel layout : L R
Sampling rate : 48.0 kHz
Frame rate : 46.875 FPS (1024 SPF)
Compression mode : Lossy
Stream size : 27.9 MiB (3%)
Title : AniDub Trina_D
Language : Russian
Default : No
Forced : No
Audio #3
ID : 4
Format : AAC LC
Format/Info : Advanced Audio Codec Low Complexity
Codec ID : A_AAC-2
Duration : 20 min 17 s
Bit rate : 192 kb/s
Channel(s) : 2 channels
Channel layout : L R
Sampling rate : 48.0 kHz
Frame rate : 46.875 FPS (1024 SPF)
Compression mode : Lossy
Stream size : 27.9 MiB (3%)
Title : OpenDub Jeferson
Language : Russian
Default : No
Forced : No
Audio #4
ID : 5
Format : FLAC
Format/Info : Free Lossless Audio Codec
Codec ID : A_FLAC
Duration : 20 min 24 s
Bit rate mode : Variable
Bit rate : 749 kb/s
Channel(s) : 2 channels
Channel layout : L R
Sampling rate : 48.0 kHz
Frame rate : 11.719 FPS (4096 SPF)
Bit depth : 16 bits
Compression mode : Lossless
Stream size : 109 MiB (11%)
Title : Original
Writing library : libFLAC 1.2.1 (UTC 2007-09-17)
Language : Japanese
Default : No
Forced : No
Text #1
ID : 6
Format : ASS
Codec ID : S_TEXT/ASS
Codec ID/Info : Advanced Sub Station Alpha
Duration : 20 min 2 s
Bit rate : 739 b/s
Count of elements : 635
Compression mode : Lossless
Stream size : 109 KiB (0%)
Title : Forced Korochun
Language : Russian
Default : Yes
Forced : No
Text #2
ID : 7
Format : ASS
Codec ID : S_TEXT/ASS
Codec ID/Info : Advanced Sub Station Alpha
Duration : 20 min 14 s
Bit rate : 877 b/s
Count of elements : 950
Compression mode : Lossless
Stream size : 130 KiB (0%)
Title : Full Korochun
Language : Russian
Default : No
Forced : No
Menu
00: 00: 00.000 : en: 00: 00: 00.000
00: 01: 17.995 : en: 00: 01: 17.995
00: 01: 45.272 : en: 00: 01: 45.272
00: 03: 20.951 : en: 00: 03: 20.951
00: 03: 59.239 : en: 00: 03: 59.239
00: 04: 12.377 : en: 00: 04: 12.377
00: 08: 59.080 : en: 00: 08: 59.080
00: 09: 14.053 : en: 00: 09: 14.053
00: 10: 09.442 : en: 00: 10: 09.442
00: 10: 28.962 : en: 00: 10: 28.962
00: 10: 52.652 : en: 00: 10: 52.652
00: 11: 03.162 : en: 00: 11: 03.162
00: 15: 04.654 : en: 00: 15: 04.654
00: 15: 23.297 : en: 00: 15: 23.297
00: 15: 44.360 : en: 00: 15: 44.360
00: 16: 11.971 : en: 00: 16: 11.971
00: 16: 50.509 : en: 00: 16: 50.509
00: 17: 42.353 : en: 00: 17: 42.353
00: 19: 12.860 : en: 00: 19: 12.860



General
Unique ID : 119744541414266673928560947797008273330 (0x5A15F5B55D867F8944D3A26B69574FB2)
Complete name : J: АнимеКарнавальный Фантазм BDRip (2011)15 (Carnival Phantasm Special). HibiChika (ХибиЧика).mkv
Format : Matroska
Format version : Version 4
File size : 927 MiB
Duration : 26 min 18 s
Overall bit rate mode : Variable
Overall bit rate : 4 923 kb/s
Encoded date : UTC 2020-06-24 16: 00: 27
Writing application : mkvmerge v47.0.0 (\'Black Flag\') 64-bit
Writing library : libebml v1.3.10 + libmatroska v1.5.2
Video
ID : 1
Format : AVC
Format/Info : Advanced Video Codec
Format profile : High@L5
Format settings : CABAC/5 Ref Frames
Format settings, CABAC : Yes
Format settings, Reference : 5 frames
Codec ID : V_MPEG4/ISO/AVC
Duration : 26 min 18 s
Bit rate : 3 911 kb/s
Width : 1 920 pixels
Height : 1 080 pixels
Display aspect ratio : 16: 9
Frame rate mode : Constant
Frame rate : 23.976 (24000/1001) FPS
Color space : YUV
Chroma subsampling : 4: 2: 0
Bit depth : 8 bits
Scan type : Progressive
Bits/(Pixel*Frame) : 0.079
Stream size : 736 MiB (79%)
Writing library : x264 core 148 r2638 7599210
Encoding settings : cabac=1/ref=5/deblock=1: 1: 1/analyse=0x3: 0x113/me=umh/subme=9/psy=1/psy_rd=0.70: 0.00/mixed_ref=1/me_range=32/chroma_me=1/trellis=0/8x8dct=1/cqm=0/deadzone=21, 11/fast_pskip=0/chroma_qp_offset=-2/threads=12/lookahead_threads=1/sliced_threads=0/nr=0/decimate=1/interlaced=0/bluray_compat=0/constrained_intra=0/bframes=3/b_pyramid=2/b_adapt=2/b_bias=0/direct=1/weightb=1/open_gop=0/weightp=2/keyint=240/keyint_min=23/scenecut=40/intra_refresh=0/rc_lookahead=40/rc=crf/mbtree=1/crf=16.0/qcomp=0.60/qpmin=0/qpmax=69/qpstep=4/ip_ratio=1.40/aq=1: 1.00
Language : Japanese
Default : Yes
Forced : No
Audio #1
ID : 2
Format : AC-3
Format/Info : Audio Coding 3
Commercial name : Dolby Digital
Codec ID : A_AC3
Duration : 26 min 17 s
Bit rate mode : Constant
Bit rate : 320 kb/s
Channel(s) : 2 channels
Channel layout : L R
Sampling rate : 48.0 kHz
Frame rate : 31.250 FPS (1536 SPF)
Compression mode : Lossy
Stream size : 60.2 MiB (6%)
Title : AniFilm DemonOFmooN Lali
Language : Russian
Service kind : Complete Main
Default : Yes
Forced : No
Audio #2
ID : 3
Format : FLAC
Format/Info : Free Lossless Audio Codec
Codec ID : A_FLAC
Duration : 26 min 18 s
Bit rate mode : Variable
Bit rate : 678 kb/s
Channel(s) : 2 channels
Channel layout : L R
Sampling rate : 48.0 kHz
Frame rate : 11.719 FPS (4096 SPF)
Bit depth : 16 bits
Compression mode : Lossless
Delay relative to video : 65 ms
Stream size : 128 MiB (14%)
Title : Original
Writing library : libFLAC 1.2.1 (UTC 2007-09-17)
Language : Japanese
Default : No
Forced : No
Text #1
ID : 4
Format : ASS
Codec ID : S_TEXT/ASS
Codec ID/Info : Advanced Sub Station Alpha
Duration : 25 min 1 s
Bit rate : 5 421 b/s
Count of elements : 4843
Compression mode : Lossless
Stream size : 994 KiB (0%)
Title : Forced Korochun
Language : Russian
Default : Yes
Forced : No
Text #2
ID : 5
Format : ASS
Codec ID : S_TEXT/ASS
Codec ID/Info : Advanced Sub Station Alpha
Duration : 26 min 11 s
Bit rate : 5 340 b/s
Count of elements : 5287
Compression mode : Lossless
Stream size : 1.00 MiB (0%)
Title : Full Korochun
Language : Russian
Default : No
Forced : No
Menu
00: 00: 00.000 : en: 00: 20: 24.723
00: 02: 18.137 : en: 00: 22: 42.861
00: 03: 59.238 : en: 00: 24: 23.962
00: 05: 34.876 : en: 00: 25: 59.600
00: 10: 51.442 : en: 00: 31: 16.166
00: 12: 04.765 : en: 00: 32: 29.489
00: 12: 27.746 : en: 00: 32: 52.470
00: 23: 08.386 : en: 00: 43: 33.110
00: 24: 35.765 : en: 00: 45: 00.489

Время раздачи: С 8: 00 по 18: 00 МСК (до появления первых 3-5 скачавших)
Понравился релиз? Ставь Оценку и нажми Спасибо
Это серьёзно меня мотивирует делать подобные релизы.
Если всем сердцем любишь аниме - подключайся и оставайся на раздаче максимально долго! Мои Релизы
За ретайминг звука и субтитров огромное спасибо DS2902
Полный список ретаймов
Рейтинг →
 (голосов: 1, оценка 5/5, голосовать можно 1 раз )

Другие торренты по теме:

  • One Piece: Jango no Dance Carnival / One Piece: Djangos Dance Carnival / Ван-Пис: Танцевальный марафон Джанго [2001] DVDrip raw
  • Trolley Snatcha - Archetype (2014) EP [MP3|320 кб / с]<Dubstep, Carnival, Chillstep, GlitchHop> скачать через торрент бесплатно
  • Algo - Goon EP (2015) [MP3|320 кб / с]<Dubstep, Carnival>
  • Carnival Island / Весёлая ярмарка (2011) [PS3] [EUR] 3.72 [Cobra ODE / E3 ODE PRO ISO] [License] [Ru / Multi] [MOVE] скачать через торрент бесплатно
  • Motley Crue - Carnival of Sins (2005) WEBRip [H.264 / 720p-LQ] скачать через торрент бесплатно
  • Major Lazer - Peace Is the Mission (2015) [FLAC|Lossless|WEB-DL]<Trap, FutureBass, DutchHouse, ElectroHouse, Moombahton, Carnival> скачать через торрент бесплатно
  • Robot Carnival | Карнавал роботов [1987, OVA, 9 эп.] DVDRip 480p raw скачать через торрент бесплатно
  • Yellow Claw - Blood For Mercy LP (2015) [MP3|320 кб / с]<Trap,Hardstyle,Carnival,FutureBass,Moombahton> скачать через торрент бесплатно


    • Комментарии (0):

      Информация

      Информация

        Посетители, находящиеся в группе Гости, не могут оставлять комментарии в данной новости.