Подписывайся на наш канал в Telegram https://t.me/torrentok и получи доступ к торрентам без ограничений!
.
Авторизация | Регистрация
torrent123.club
Торрент трекер | Скачать торрент | Скачать Через Торрент | Скачать торрент бесплатно | Скачать торрент без регистрации Мультфильмы торрент скачать Kore wa Zombie Desuka Of the Dead | Уж не Зомби ли Это Среди Мертвецов [TV-2] [2012, TV, 10 ep] BDRip 1080p 10-bit raw+rus торрент скачать бесплатно


    Kore wa Zombie Desuka Of the Dead | Уж не Зомби ли Это Среди Мертвецов [TV-2] [2012, TV, 10 ep] BDRip 1080p 10-bit raw+rus торрент скачать бесплатно

    Дата: 29-06-2020, 05:00 | .torrent скачали: 0

    Kore wa Zombie Desuka Of the Dead | Уж не Зомби ли Это Среди Мертвецов [TV-2] [2012, TV, 10 ep] BDRip 1080p 10-bit raw+rusТип: TV
    Жанр: Приключения, Комедия, Фантастика, Этти
    Продолжительность: 10 Эпизодов по 23 Мин
    Количество серий: 10 Эпизодов
    Дата выпуска: c05.04.2012 по07.06.2012
    Автор оригинала: Кимура Синъити
    Режиссер: Канасаки Такаоми
    Производство: Studio Deen, Япония

    World-Art | AniDB | MyAnimelist | Shikimori

    Описание

    Аюму Аикава случайно стал зомби. Вот не повезло парню — но он не унывал, продолжал ходить в школу и даже познакомился с несколькими ошеломительными девчонками, которые, каждая по своей причине, даже перебрались к нему жить.
    После сумасбродных приключений в первом сезон любимого сериалае наступило недолгое затишье. Парень уже стал привыкать к жизни обычного зомби-старшеклассника, но не тут-то было. Проблемы стали ссыпаться одна за другой: то вампиры зашалят, то гости из загробного мира пожалуют. И разбираться в этом почему-то приходится Аюму.
    Но не все так плохо. Ведь к обширному числу подруг главного героя присоединились еще две — вампиресса-ниндзя Сарасвати и странная девушка, которой главный герой пристрастился изливать душу долгими вечерами.
    Автор: Sfairat ©Shikimori
    Видео Сэмпл: Скачать сЯндекс.Диск
    Качество Видео: BDRip
    Видео: AVC / x264 , 1920x1080, 23.976 fps, 4 000 kb/s, 0.080 bpp 10-bit
    Язык Озвучки: Японский и Русский
    Озвучка: Одноголосая, Двухголосая, Многоголосая закадровая
    Аудио №1: AAC2.0 , 48.0 kHz, 257 kb/s( AniDub MVO ) |Язык:
    Аудио №2: AC32.0 , 48.0 kHz, 192 kb/s( AniDub DVO ) |Язык:
    Аудио №3: AC32.0 , 48.0 kHz, 192 kb/s( Shiza Project DVO ) |Язык:
    Аудио №4: AAC2.0 , 48.0 kHz, 192 kb/s( AniLibria DVO ) |Язык:
    Аудио №5: AAC2.0 , 48.0 kHz, 192 kb/s( AniFlm DVO ) |Язык:
    Аудио №6: AAC2.0 , 48.0 kHz, 192 kb/s( AniLife AVO ) |Язык:
    Аудио №7: AAC2.0 , 48.0 kHz, 192 kb/s( GetSmart Group AVO ) |Язык:
    Аудио №8: AAC2.0 , 48.0 kHz, 192 kb/s( WiaDub AVO ) |Язык:
    Аудио №9: FLAC2.0 , 48.0 kHz, 1 540 kb/s 24-Bit( Original ) |Язык:
    Субтитры: Надписи, Полные( KBM TeaM )
    Скриншоты:





    01 . Yes, Masou Transformation Again! (Да, пора опять превращаться в Девочку-Волшебницу!)
    02 . Goodbye, Me (Ах, прощай, я!)
    03 . Yo! That`s Yours Truly! (Эй! Это и правда твоё!)
    04 . No, Go Home Master (Нет, уйдите, мой господин)
    05 . This Is Popular Every Year (Да, это же последний писк моды)
    06 . Hell No! I shoulda Won! (Вот уж нет! Я должен был выиграть!)
    07 . Yeah, Sensei Is the Strongest! (Да, сенсей сильнее всех!)
    08 . Heh, It`s Party Time, Kyouko! (Хех, время вечеринки, Кёко!)
    09 . Ah, My Darling Is Good for Nothing (Ах, мой дорогой бесполезен)
    10 . But, I Prefer That (Но и так сойдет)

    4) Kore wa Zombie desuka? TV-1
    4) Kore wa Zombie Desuka? OVA 1 2
    2) Kore wa Zombie Desuka? Of the Dead TV-2(Эта Раздача)
    3) Kore wa Zombie Desuka? OVA 3


    General
    Unique ID : 66966554217822164671820598412483831206 (0x32614A0946DFAD607E7FAAFD0AF525A6)
    Complete name : J: АнимеУж не Зомби ли Это! (Kore wa Zombie desuka!) BDRip (2011-2012)Kore wa Zombie Desuka TV-215 (Kore wa Zombie Desuka Of the Dead TV-2) 01. Yes, Masou Transformation Again! (Да, пора опять превращаться в Девочку-Волшебницу!).mkv
    Format : Matroska
    Format version : Version 4
    File size : 1.24 GiB
    Duration : 24 min 42 s
    Overall bit rate mode : Variable
    Overall bit rate : 7 158 kb/s
    Encoded date : UTC 2020-06-24 09: 54: 38
    Writing application : mkvmerge v47.0.0 (\'Black Flag\') 64-bit
    Writing library : libebml v1.3.10 + libmatroska v1.5.2
    Attachments : a_StamperRgBt.ttf
    Video
    ID : 1
    Format : AVC
    Format/Info : Advanced Video Codec
    Format profile : High 10@L5
    Format settings : CABAC/5 Ref Frames
    Format settings, CABAC : Yes
    Format settings, Reference : 5 frames
    Codec ID : V_MPEG4/ISO/AVC
    Duration : 24 min 42 s
    Bit rate mode : Variable
    Bit rate : 4 000 kb/s
    Maximum bit rate : 40.0 Mb/s
    Width : 1 920 pixels
    Height : 1 080 pixels
    Display aspect ratio : 16: 9
    Frame rate mode : Constant
    Frame rate : 23.976 (24000/1001) FPS
    Color space : YUV
    Chroma subsampling : 4: 2: 0
    Bit depth : 10 bits
    Scan type : Progressive
    Bits/(Pixel*Frame) : 0.080
    Stream size : 732 MiB (58%)
    Writing library : x264 core 122 r2183+656+26 13893a7 tMod 10-bit@4: 2: 0 X86
    Encoding settings : cabac=1/ref=6/deblock=1: -2: -2/analyse=0x3: 0x133/me=umh/subme=9/psy=1/fade_compensate=0.00/psy_rd=0.60: 0.00/mixed_ref=1/me_range=48/chroma_me=1/trellis=2/8x8dct=1/cqm=0/deadzone=6, 3/fast_pskip=1/chroma_qp_offset=-2/threads=18/sliced_threads=0/nr=0/decimate=1/interlaced=0/bluray_compat=0/constrained_intra=0/fgo=0/bframes=8/b_pyramid=1/b_adapt=1/b_bias=0/direct=3/weightb=1/open_gop=0/weightp=2/keyint=250/keyint_min=24/scenecut=40/intra_refresh=0/rc_lookahead=80/rc=2pass/mbtree=0/bitrate=4000/ratetol=1.0/qcomp=0.60/qpmin=15/qpmax=35/qpstep=4/cplxblur=20.0/qblur=0.5/vbv_maxrate=40000/vbv_bufsize=50000/nal_hrd=vbr/ip_ratio=1.40/pb_ratio=1.30/aq=4: 1.00
    Language : Japanese
    Default : Yes
    Forced : No
    Color range : Limited
    Color primaries : BT.709
    Transfer characteristics : BT.709
    Matrix coefficients : BT.709
    Audio #1
    ID : 2
    Format : AAC LC
    Format/Info : Advanced Audio Codec Low Complexity
    Codec ID : A_AAC-2
    Duration : 24 min 42 s
    Bit rate : 128 kb/s
    Channel(s) : 2 channels
    Channel layout : L R
    Sampling rate : 48.0 kHz
    Frame rate : 46.875 FPS (1024 SPF)
    Compression mode : Lossy
    Stream size : 22.6 MiB (2%)
    Title : AniDub Ket Kobayashi Trina_D
    Language : Russian
    Default : Yes
    Forced : No
    Audio #2
    ID : 3
    Format : AC-3
    Format/Info : Audio Coding 3
    Commercial name : Dolby Digital
    Codec ID : A_AC3
    Duration : 24 min 42 s
    Bit rate mode : Constant
    Bit rate : 192 kb/s
    Channel(s) : 2 channels
    Channel layout : L R
    Sampling rate : 48.0 kHz
    Frame rate : 31.250 FPS (1536 SPF)
    Compression mode : Lossy
    Stream size : 33.9 MiB (3%)
    Title : AniDub Tinko Wolfys
    Language : Russian
    Service kind : Complete Main
    Default : No
    Forced : No
    Audio #3
    ID : 4
    Format : AC-3
    Format/Info : Audio Coding 3
    Commercial name : Dolby Digital
    Codec ID : A_AC3
    Duration : 24 min 42 s
    Bit rate mode : Constant
    Bit rate : 192 kb/s
    Channel(s) : 2 channels
    Channel layout : L R
    Sampling rate : 48.0 kHz
    Frame rate : 31.250 FPS (1536 SPF)
    Compression mode : Lossy
    Stream size : 33.9 MiB (3%)
    Title : Shiza Project ShadMG Лизавета
    Language : Russian
    Service kind : Complete Main
    Default : No
    Forced : No
    Audio #4
    ID : 5
    Format : AAC LC
    Format/Info : Advanced Audio Codec Low Complexity
    Codec ID : A_AAC-2
    Duration : 24 min 42 s
    Bit rate : 192 kb/s
    Channel(s) : 2 channels
    Channel layout : L R
    Sampling rate : 48.0 kHz
    Frame rate : 46.875 FPS (1024 SPF)
    Compression mode : Lossy
    Stream size : 33.9 MiB (3%)
    Title : AniLibria Lupin Silv
    Language : Russian
    Default : No
    Forced : No
    Audio #5
    ID : 6
    Format : AAC LC
    Format/Info : Advanced Audio Codec Low Complexity
    Codec ID : A_AAC-2
    Duration : 24 min 42 s
    Bit rate : 192 kb/s
    Channel(s) : 2 channels
    Channel layout : L R
    Sampling rate : 48.0 kHz
    Frame rate : 46.875 FPS (1024 SPF)
    Compression mode : Lossy
    Stream size : 33.9 MiB (3%)
    Title : AniFlm DemonOFmooN Lali
    Language : Russian
    Default : No
    Forced : No
    Audio #6
    ID : 7
    Format : AAC LC
    Format/Info : Advanced Audio Codec Low Complexity
    Codec ID : A_AAC-2
    Duration : 24 min 42 s
    Bit rate : 192 kb/s
    Channel(s) : 2 channels
    Channel layout : L R
    Sampling rate : 48.0 kHz
    Frame rate : 46.875 FPS (1024 SPF)
    Compression mode : Lossy
    Delay relative to video : 9 ms
    Stream size : 33.5 MiB (3%)
    Title : AniLife negaushi
    Language : Russian
    Default : No
    Forced : No
    Audio #7
    ID : 8
    Format : AAC LC
    Format/Info : Advanced Audio Codec Low Complexity
    Codec ID : A_AAC-2
    Duration : 24 min 42 s
    Bit rate : 192 kb/s
    Channel(s) : 2 channels
    Channel layout : L R
    Sampling rate : 48.0 kHz
    Frame rate : 46.875 FPS (1024 SPF)
    Compression mode : Lossy
    Delay relative to video : 9 ms
    Stream size : 33.5 MiB (3%)
    Title : GetSmart Group Persona99
    Language : Russian
    Default : No
    Forced : No
    Audio #8
    ID : 9
    Format : AAC LC
    Format/Info : Advanced Audio Codec Low Complexity
    Codec ID : A_AAC-2
    Duration : 24 min 42 s
    Bit rate : 192 kb/s
    Channel(s) : 2 channels
    Channel layout : L R
    Sampling rate : 48.0 kHz
    Frame rate : 46.875 FPS (1024 SPF)
    Compression mode : Lossy
    Delay relative to video : 9 ms
    Stream size : 33.5 MiB (3%)
    Title : WiaDub Mustadio Linokk
    Language : Russian
    Default : No
    Forced : No
    Audio #9
    ID : 10
    Format : FLAC
    Format/Info : Free Lossless Audio Codec
    Codec ID : A_FLAC
    Duration : 24 min 42 s
    Bit rate mode : Variable
    Bit rate : 1 540 kb/s
    Channel(s) : 2 channels
    Channel layout : L R
    Sampling rate : 48.0 kHz
    Frame rate : 11.719 FPS (4096 SPF)
    Bit depth : 24 bits
    Compression mode : Lossless
    Stream size : 272 MiB (22%)
    Title : Original
    Writing library : libFLAC 1.2.1 (UTC 2007-09-17)
    Language : Japanese
    Default : No
    Forced : No
    Text #1
    ID : 11
    Format : ASS
    Codec ID : S_TEXT/ASS
    Codec ID/Info : Advanced Sub Station Alpha
    Duration : 24 min 3 s
    Bit rate : 84 b/s
    Count of elements : 157
    Compression mode : Lossless
    Stream size : 14.8 KiB (0%)
    Title : Forced AOS
    Language : Russian
    Default : Yes
    Forced : No
    Text #2
    ID : 12
    Format : ASS
    Codec ID : S_TEXT/ASS
    Codec ID/Info : Advanced Sub Station Alpha
    Duration : 24 min 3 s
    Bit rate : 219 b/s
    Count of elements : 520
    Compression mode : Lossless
    Stream size : 38.6 KiB (0%)
    Title : Full AOS
    Language : Russian
    Default : No
    Forced : No
    Text #3
    ID : 13
    Format : ASS
    Codec ID : S_TEXT/ASS
    Codec ID/Info : Advanced Sub Station Alpha
    Duration : 24 min 3 s
    Bit rate : 162 b/s
    Count of elements : 413
    Compression mode : Lossless
    Stream size : 28.6 KiB (0%)
    Title : Full KBM TeaM
    Language : Russian
    Default : No
    Forced : No
    Menu
    00: 00: 00.000 : : Chapter 01
    00: 01: 41.059 : : Chapter 02
    00: 03: 29.000 : : Chapter 03
    00: 11: 07.958 : : Chapter 04
    00: 22: 30.766 : : Chapter 05
    00: 24: 00.856 : : Chapter 06

    Время раздачи: С 8: 00 по 18: 00 МСК (до появления первых 3-5 скачавших)
    Понравился релиз? Ставь Оценку и нажми Спасибо
    Это серьёзно меня мотивирует делать подобные релизы.
    Если всем сердцем любишь аниме - подключайся и оставайся на раздаче максимально долго! Мои Релизы
    За ретайминг звука и субтитров огромное спасибо DS2902
    Полный список ретаймов
    Рейтинг →
     (голосов: 1, оценка 4/5, голосовать можно 1 раз )

    Другие торренты по теме:

  • Kore wa Zombie Desuka Of the Dead / Уж не зомби ли это Мертвее некуда [ТВ-2][2012, TV 10 ep + OVA 2 ep] BDrip 1080p raw
  • Kore wa Zombie Desu ka / Уж не зомби ли это [ТВ-1][2011, TV 12 ep + OVA 1 ep] BDrip 1080p raw


    • Комментарии (0):

      Информация

      Информация

        Посетители, находящиеся в группе Гости, не могут оставлять комментарии в данной новости.