Подписывайся на наш канал в Telegram https://t.me/torrentok и получи доступ к торрентам без ограничений!
.
Авторизация | Регистрация
torrent123.club


Kore wa Zombie desuka | Уж не Зомби ли Это [TV-1] [2011, TV, 12 ep] BDRip 1080p raw+rus торрент скачать бесплатно

Дата: 29-06-2020, 05:00 | .torrent скачали: 0

Kore wa Zombie desuka | Уж не Зомби ли Это [TV-1] [2011, TV, 12 ep] BDRip 1080p raw+rusТип: TV
Жанр: Приключения, Комедия, Фантастика, Этти
Продолжительность: 12 Эпизодов по 23 Мин
Количество серий: 12 Эпизодов
Дата выпуска: c11.01.2011 по30.03.2011
Автор оригинала: Кимура Синъити
Режиссер: Канасаки Такаоми
Производство: Studio Deen, Япония

World-Art | AniDB | MyAnimelist | Shikimori

Описание

Аюму Аикава каждый день ходит в школу и живет жизнью обычного старшеклассника. Однако все переворачивается с ног на голову в тот день, когда он сначала становится жертвой серийного маньяка-убийцы, а затем превращается в зомби, воскрешенный девушкой-некроманткой Эвкливуд Хеллсайт.
Зомби он вышел необычным, у него появилась сверхчеловеческая сила с выносливостью и магические способности. Сама же некромантка поселилась у него в квартире, чтобы наблюдать за этим странным созданием.
Днями Аюму продолжает ходить в школу, а ночами рыскает по городу в надежде найти того самого маньяка и поквитаться с ним. Во время очередного ночного похождения он встречает девочку-волшебницу Харуну, сражающуюся со злым духом анти-магической системы Мегало. Сам того не желая, Аюму поглощает ее магические способности, превратившись в волшебника в костюме махо-сёдзё, а Харуне не остается иного выбора, кроме как переехать к нему жить.
И вскоре гарем пополняется еще одной девушкой, очаровательной вампирессой-ниндзя Серафимой, попытавшейся сначала убить Аюму, а затем также переехавшей к нему в дом.
Автор: morr ©Shikimori
Видео Сэмпл: Скачать сЯндекс.Диск
Качество Видео: BDRip
Видео: AVC / x264 , 1920x1080, 23.976 fps, 10.9 Mb/s, 0.220 bpp 8-bit
Язык Озвучки: Японский и Русский
Озвучка: Одноголосая, Двухголосая, Многоголосая закадровая
Аудио №1: AAC2.0 , 48.0 kHz, 257 kb/s( AniDub MVO ) |Язык:
Аудио №2: AAC2.0 , 48.0 kHz, 192 kb/s( AniDub AVO ) |Язык:
Аудио №3: AAC2.0 , 48.0 kHz, 192 kb/s( Shiza Project DVO ) |Язык:
Аудио №4: AAC2.0 , 48.0 kHz, 192 kb/s( AniLibria DVO ) |Язык:
Аудио №5: AC32.0 , 48.0 kHz, 192 kb/s( GetSmart Group AVO ) |Язык:
Аудио №6: AAC2.0 , 48.0 kHz, 192 kb/s( LE-Production AVO ) |Язык:
Аудио №7: AC32.0 , 48.0 kHz, 192 kb/s( OpenDub AVO ) |Язык:
Аудио №8: FLAC2.0 , 48.0 kHz, 1 457 kb/s 24-Bit( Original ) |Язык:
Субтитры: Надписи, Полные( KBM TeaM )
Скриншоты:





01 . Yes, I Am a Masou-Shoujo (Да, я пиловолшебница)
02 . No, I`m a Bloodsucking Ninja (Нет, я вампир-ниндзя)
03 . Yes, I Have Twin Tails (Да, у меня два хвостика)
04 . Am I Radiant (Что, я сияю)
05 . Yes, It`s Kyo-Tofu (Да, вот столичный тофу)
06 . Yes, I am the Harbinger of Death (Да, я предвестник смерти)
07 . Hey, Where Are You (Эй, в какую школу ты ходишь)
08 . Hehe, I\'m a School Wife (Хехе, я - школьная жена)
09 . Yes, I\'m a Great Stripper (Не поверишь, что под нами)
10 . No, That Will Explode (Нет, оно взорвётся)
11 . Yes, Stay at My Place! (Да, останься со мной!)
12 . Yes, Still Goes On (Да, продолжаем)

4) Kore wa Zombie desuka? TV-1(Эта Раздача)
4) Kore wa Zombie Desuka? OVA 1 2
2) Kore wa Zombie Desuka? Of the Dead TV-2
3) Kore wa Zombie Desuka? OVA 3


General
Unique ID : 226137923166194318381708636389702928262 (0xAA20946C61021FB3E587BDD697BC8786)
Complete name : J: АнимеУж не Зомби ли Это! (Kore wa Zombie desuka!) BDRip (2011-2012)Kore wa Zombie Desuka TV-11 (Kore wa Zombie Desuka TV-1) 01. Yes, I Am a Masou-Shoujo (Да, я пиловолшебница).mkv
Format : Matroska
Format version : Version 4
File size : 2.38 GiB
Duration : 24 min 51 s
Overall bit rate mode : Variable
Overall bit rate : 13.7 Mb/s
Encoded date : UTC 2020-06-25 05: 06: 02
Writing application : mkvmerge v47.0.0 (\'Black Flag\') 64-bit
Writing library : libebml v1.3.10 + libmatroska v1.5.2
Attachments : a_StamperRgBt.ttf
Video
ID : 1
Format : AVC
Format/Info : Advanced Video Codec
Format profile : High@L4.1
Format settings : CABAC/4 Ref Frames
Format settings, CABAC : Yes
Format settings, Reference : 4 frames
Codec ID : V_MPEG4/ISO/AVC
Duration : 24 min 43 s
Bit rate : 10.9 Mb/s
Width : 1 920 pixels
Height : 1 080 pixels
Display aspect ratio : 16: 9
Frame rate mode : Constant
Frame rate : 23.976 (24000/1001) FPS
Color space : YUV
Chroma subsampling : 4: 2: 0
Bit depth : 8 bits
Scan type : Progressive
Bits/(Pixel*Frame) : 0.220
Stream size : 1.88 GiB (79%)
Writing library : x264 core 114 r1913 5fd3dce
Encoding settings : cabac=1/ref=4/deblock=1: -2: -2/analyse=0x3: 0x133/me=umh/subme=9/psy=1/psy_rd=1.00: 0.00/mixed_ref=1/me_range=24/chroma_me=1/trellis=2/8x8dct=1/cqm=0/deadzone=21, 11/fast_pskip=1/chroma_qp_offset=-2/threads=12/sliced_threads=0/nr=0/decimate=0/interlaced=0/constrained_intra=0/bframes=8/b_pyramid=2/b_adapt=2/b_bias=0/direct=3/weightb=1/open_gop=0/weightp=2/keyint=250/keyint_min=23/scenecut=40/intra_refresh=0/rc_lookahead=40/rc=2pass/mbtree=0/bitrate=10919/ratetol=1.0/qcomp=0.60/qpmin=9/qpmax=22/qpstep=4/cplxblur=20.0/qblur=0.5/vbv_maxrate=40000/vbv_bufsize=62500/nal_hrd=none/ip_ratio=1.40/pb_ratio=1.30/aq=1: 0.90
Language : Japanese
Default : Yes
Forced : No
Audio #1
ID : 2
Format : AAC LC
Format/Info : Advanced Audio Codec Low Complexity
Codec ID : A_AAC-2
Duration : 24 min 51 s
Bit rate : 257 kb/s
Channel(s) : 2 channels
Channel layout : L R
Sampling rate : 48.0 kHz
Frame rate : 46.875 FPS (1024 SPF)
Compression mode : Lossy
Stream size : 45.8 MiB (2%)
Title : AniDub Ket Kobayashi Trina_D
Language : Russian
Default : Yes
Forced : No
Audio #2
ID : 3
Format : AAC LC
Format/Info : Advanced Audio Codec Low Complexity
Codec ID : A_AAC-2
Duration : 24 min 40 s
Bit rate : 192 kb/s
Channel(s) : 2 channels
Channel layout : L R
Sampling rate : 48.0 kHz
Frame rate : 46.875 FPS (1024 SPF)
Compression mode : Lossy
Stream size : 33.9 MiB (1%)
Title : AniDub Zack_Fair
Language : Russian
Default : No
Forced : No
Audio #3
ID : 4
Format : AAC LC
Format/Info : Advanced Audio Codec Low Complexity
Codec ID : A_AAC-2
Duration : 24 min 43 s
Bit rate : 192 kb/s
Channel(s) : 2 channels
Channel layout : L R
Sampling rate : 48.0 kHz
Frame rate : 46.875 FPS (1024 SPF)
Compression mode : Lossy
Stream size : 33.9 MiB (1%)
Title : Shiza Project Snowly Lizaveta
Language : Russian
Default : No
Forced : No
Audio #4
ID : 5
Format : AAC LC
Format/Info : Advanced Audio Codec Low Complexity
Codec ID : A_AAC-2
Duration : 24 min 41 s
Bit rate : 192 kb/s
Channel(s) : 2 channels
Channel layout : L R
Sampling rate : 48.0 kHz
Frame rate : 46.875 FPS (1024 SPF)
Compression mode : Lossy
Stream size : 33.9 MiB (1%)
Title : AniLibria Silv Lupin
Language : Russian
Default : No
Forced : No
Audio #5
ID : 6
Format : AC-3
Format/Info : Audio Coding 3
Commercial name : Dolby Digital
Codec ID : A_AC3
Duration : 24 min 44 s
Bit rate mode : Constant
Bit rate : 192 kb/s
Channel(s) : 2 channels
Channel layout : L R
Sampling rate : 48.0 kHz
Frame rate : 31.250 FPS (1536 SPF)
Compression mode : Lossy
Stream size : 34.0 MiB (1%)
Title : GetSmart Group Persona99
Language : Russian
Service kind : Complete Main
Default : No
Forced : No
Audio #6
ID : 7
Format : AAC LC
Format/Info : Advanced Audio Codec Low Complexity
Codec ID : A_AAC-2
Duration : 24 min 41 s
Bit rate : 192 kb/s
Channel(s) : 2 channels
Channel layout : L R
Sampling rate : 48.0 kHz
Frame rate : 46.875 FPS (1024 SPF)
Compression mode : Lossy
Stream size : 33.9 MiB (1%)
Title : LE-Production loster01
Language : Russian
Default : No
Forced : No
Audio #7
ID : 8
Format : AC-3
Format/Info : Audio Coding 3
Commercial name : Dolby Digital
Codec ID : A_AC3
Duration : 24 min 41 s
Bit rate mode : Constant
Bit rate : 192 kb/s
Channel(s) : 2 channels
Channel layout : L R
Sampling rate : 48.0 kHz
Frame rate : 31.250 FPS (1536 SPF)
Compression mode : Lossy
Stream size : 33.9 MiB (1%)
Title : OpenDub Flame
Language : Russian
Service kind : Complete Main
Default : No
Forced : No
Audio #8
ID : 9
Format : FLAC
Format/Info : Free Lossless Audio Codec
Codec ID : A_FLAC
Duration : 24 min 42 s
Bit rate mode : Variable
Bit rate : 1 457 kb/s
Channel(s) : 2 channels
Channel layout : L R
Sampling rate : 48.0 kHz
Frame rate : 11.719 FPS (4096 SPF)
Bit depth : 24 bits
Compression mode : Lossless
Stream size : 258 MiB (11%)
Title : Original
Writing library : libFLAC 1.2.1 (UTC 2007-09-17)
Language : Japanese
Default : No
Forced : No
Text #1
ID : 10
Format : ASS
Codec ID : S_TEXT/ASS
Codec ID/Info : Advanced Sub Station Alpha
Duration : 22 min 4 s
Bit rate : 30 b/s
Count of elements : 54
Compression mode : Lossless
Stream size : 4.96 KiB (0%)
Title : Forced KBM TeaM
Language : Russian
Default : Yes
Forced : No
Text #2
ID : 11
Format : ASS
Codec ID : S_TEXT/ASS
Codec ID/Info : Advanced Sub Station Alpha
Duration : 24 min 30 s
Bit rate : 161 b/s
Count of elements : 389
Compression mode : Lossless
Stream size : 29.1 KiB (0%)
Title : Full KBM TeaM
Language : Russian
Default : No
Forced : No
Menu
00: 00: 00.000 : en: 00: 00: 00.000
00: 02: 31.026 : en: 00: 02: 31.026
00: 04: 01.032 : en: 00: 04: 01.032
00: 11: 27.061 : en: 00: 11: 27.061
00: 22: 56.000 : en: 00: 22: 56.000
00: 24: 26.048 : en: 00: 24: 26.048

Время раздачи: С 8: 00 по 18: 00 МСК (до появления первых 3-5 скачавших)
Понравился релиз? Ставь Оценку и нажми Спасибо
Это серьёзно меня мотивирует делать подобные релизы.
Если всем сердцем любишь аниме - подключайся и оставайся на раздаче максимально долго! Мои Релизы
За ретайминг звука и субтитров огромное спасибо DS2902
Полный список ретаймов
Рейтинг →
 (голосов: 1, оценка 5/5, голосовать можно 1 раз )

Другие торренты по теме:

  • Kore wa Zombie Desuka Of the Dead / Уж не зомби ли это Мертвее некуда [ТВ-2][2012, TV 10 ep + OVA 2 ep] BDrip 1080p raw
  • Kore wa Zombie Desu ka / Уж не зомби ли это [ТВ-1][2011, TV 12 ep + OVA 1 ep] BDrip 1080p raw


    • Комментарии (0):

      Информация

      Информация

        Посетители, находящиеся в группе Гости, не могут оставлять комментарии в данной новости.