Подписывайся на наш канал в Telegram https://t.me/torrentok и получи доступ к торрентам без ограничений!
.
Авторизация | Регистрация
torrent123.club


Три товарища (1943) TVRip [H.264] [hand made colored] торрент скачать бесплатно

Дата: 30-06-2020, 05:00 | .torrent скачали: 0

Три товарища (1943) TVRip [H.264] [hand made colored]Производство: СССР, Тбилисская киностудия
Жанр: Детский, Рисованная анимация, Сказка
Режиссер: Владимир Муджири

Описание

О верных друзьях, которые сообща могут сладить с любым противником. Цветной.

Возраст: 0+ (для любой зрительской аудитории)
Продолжительность: 00: 17: 14
Качество видео: TVRip
Субтитры: отсутствуют
Видео: AVC/H.264, 704x528 (4: 3), ~2 926 Kbps
Аудио: AAC, 2 ch, 192 Kbps, 48 KHz
General
Unique ID : 181105846055315360506196827391003499935 (0x883FB79A8F6A173883F281D6827C9D9F)
Complete name : D: Torrent_DownloadTri_tovarischa_1943_color_langust.mkv
Format : Matroska
Format version : Version 4
File size : 385 MiB
Duration : 17 min 14 s
Overall bit rate : 3 120 kb/s
Encoded date : UTC 2020-06-29 04: 53: 59
Writing application : mkvmerge v8.4.0 (\'A better way to fly\') 32bit
Writing library : libebml v1.3.1 + libmatroska v1.4.2
Video
ID : 1
Format : AVC
Format/Info : Advanced Video Codec
Format profile : Main@L3
Format settings : CABAC/3 Ref Frames
Format settings, CABAC : Yes
Format settings, Reference frames : 3 frames
Format settings, GOP : M=1, N=33
Codec ID : V_MPEG4/ISO/AVC
Duration : 17 min 14 s
Bit rate : 2 926 kb/s
Width : 704 pixels
Height : 528 pixels
Display aspect ratio : 4: 3
Frame rate mode : Constant
Frame rate : 25.000 FPS
Standard : PAL
Color space : YUV
Chroma subsampling : 4: 2: 0
Bit depth : 8 bits
Scan type : Progressive
Bits/(Pixel*Frame) : 0.315
Stream size : 361 MiB (94%)
Language : English
Default : Yes
Forced : No
Color range : Limited
Audio
ID : 2
Format : AAC LC
Format/Info : Advanced Audio Codec Low Complexity
Codec ID : A_AAC-2
Duration : 17 min 14 s
Bit rate : 192 kb/s
Channel(s) : 2 channels
Channel layout : L R
Sampling rate : 48.0 kHz
Frame rate : 46.875 FPS (1024 SPF)
Compression mode : Lossy
Stream size : 23.7 MiB (6%)
Language : Russian
Default : Yes
Forced : No
Рейтинг →
 (голосов: 1, оценка 3/5, голосовать можно 1 раз )

Другие торренты по теме:

  • Три товарища (1943) TVRip [hand made colored] скачать через торрент бесплатно


    • Комментарии (0):

      Информация

      Информация

        Посетители, находящиеся в группе Гости, не могут оставлять комментарии в данной новости.