Подписывайся на наш канал в Telegram https://t.me/torrentok и получи доступ к торрентам без ограничений!
.
Авторизация | Регистрация
torrent123.club


Darling in the FranXX | Любимый во Франксе [2018, TV, 24 ep] BDRip 1080p 10-bit raw+rus торрент скачать бесплатно

Дата: 30-06-2020, 05:00 | .torrent скачали: 0

Darling in the FranXX | Любимый во Франксе [2018, TV, 24 ep] BDRip 1080p 10-bit raw+rusТип: TV
Жанр: Приключения, Фантастика, Романтика, Меха
Продолжительность: 24 Эпизодов по 23 Мин
Количество серий: 24 Эпизодов
Дата выпуска: c13.01.2018 по07.07.2018
Автор оригинала: Нисигори Ацуси
Режиссер: Нисигори Ацуси
Производство: Trigger, Япония

World-Art | AniDB | MyAnimelist | Shikimori

Описание

Далёкое будущее. Земля в руинах, и на остатки человечества наводят ужас таинственные гигантские формы жизни, известные как клаксозавры — ревущие драконы. Чтобы противостоять им, люди создали передвижное фортификационное сооружение, названное Плантацией, где растут и обучаются юные пилоты роботов Франкс.
Единственная цель, ради которой живут эти дети, — уничтожение клаксозавров после прохождения специальной подготовки. Но чтобы управлять роботом — необходимо двое: мужчина и женщина, тычинка и пестик. И если один не справляется, статуса пилота лишаются оба, что и для того, и для другого значит ни много ни мало утратить смысл существования.
Хиро считали одарённым. До тех пор, пока он не провалился на экзамене вместе со своей напарницей. Птица, которая никогда не взлетит, — так чувствовал себя мальчик с того времени и даже не догадывался, что скоро встретит человека с похожей судьбой...
Убийца Напарников, рогатая девчонка, в жилах которой течёт кровь клаксозавра. Станешь ли ты моим милым? — спросила она не то шутки ради, не то всерьёз. И для Хиро вдруг снова нашлось место в мире...
Автор: Joseph ©Shikimori
Видео Сэмпл: Скачать сЯндекс.Диск
Качество Видео: BDRip
Видео: AVC / x264 , 1920x1080, 23.976 fps, 7 893 kb/s, 0.159 bpp 10-bit
Язык Озвучки: Японский и Русский
Озвучка: Многоголосая закадровая
Аудио №1: AAC2.0 , 48.0 kHz, 192 kb/s( AniDub ) |Язык:
Аудио №2: AAC2.0 , 48.0 kHz, 192 kb/s( AniLibria ) |Язык:
Аудио №3: AAC2.0 , 48.0 kHz, 192 kb/s( Kansai Studio ) |Язык:
Аудио №4: AAC2.0 , 48.0 kHz, 192 kb/s( Shiza Project ) |Язык:
Аудио №5: FLAC2.0 , 48.0 kHz, 1 407 kb/s( Original ) |Язык:
Субтитры: Надписи, Полные( Crunchyroll )
Скриншоты:






01 . Hitori to Hitori (Один и одна)
02 . What It Means to Connect (Что значит соединиться)
03 . Fighting Puppet (Сражающаяся кукла)
04 . Flap Flap (Взмахи крыльев)
05 . Your Thorn, My Badge (Твои шипы и мой символ)
06 . Darling in the Franxx (Любимый во Франксе)
07 . Shooting Star Moratorium (Мораторий падающих звёзд)
08 . Boys x Girls (Мальчики и девочки)
09 . Triangle Bomb (Треугольная бомба)
10 . The City of Eternity (Вечный город)
11 . Partner Shuffle (Обмен партнёрами)
12 . The Garden Where It All Began (Сад, с которого всё началось)
13 . The Beast and the Prince (Принц и демоница)
14 . Punishment and Confession (Преступление и признание)
15 . Jian (Двуглавая птица)
16 . Days of Our Lives (Как мы коротали дни)
17 . Eden (Рай)
18 . When the Sakura Blooms (Когда цветёт вишня)
19 . Inhumanity (Те, кому не стать людьми)
20 . A New World (Новый мир)
21 . For You, My Love (Для тебя, моя любовь)
22 . Stargazers (Звездочеты)
23 . Darling in the Franxx (Любимый во Франкиссе)
24 . Never Let Me Go (Останься со мной)


General
Unique ID : 82208497921245991476017188027727812020 (0x3DD8C7E164688FBDEC24C0FF976B15B4)
Complete name : D: Любимый во Франксе BDRip (2018)1. Hitori to Hitori (Один и одна).mkv
Format : Matroska
Format version : Version 4
File size : 1.70 GiB
Duration : 24 min 2 s
Overall bit rate mode : Variable
Overall bit rate : 10.1 Mb/s
Encoded date : UTC 2020-06-28 19: 07: 45
Writing application : mkvmerge v43.0.0 (\'The Quartermaster\') 64-bit
Writing library : libebml v1.3.10 + libmatroska v1.5.2
Video
ID : 1
Format : AVC
Format/Info : Advanced Video Codec
Format profile : High 10@L5
Format settings : CABAC/4 Ref Frames
Format settings, CABAC : Yes
Format settings, Reference : 4 frames
Codec ID : V_MPEG4/ISO/AVC
Duration : 24 min 2 s
Bit rate : 7 893 kb/s
Width : 1 920 pixels
Height : 1 080 pixels
Display aspect ratio : 16: 9
Frame rate mode : Constant
Frame rate : 23.976 (24000/1001) FPS
Color space : YUV
Chroma subsampling : 4: 2: 0
Bit depth : 10 bits
Scan type : Progressive
Bits/(Pixel*Frame) : 0.159
Stream size : 1.32 GiB (78%)
Writing library : x264 core 155 r2901M 7d0ff22 (DJATOM\'s mod)
Encoding settings : cabac=1/ref=4/deblock=1: 1: -1/analyse=0x3: 0x113/me=umh/subme=9/psy=1/fade_compensate=0.00/psy_rd=1.00: 0.00/mixed_ref=1/me_range=32/chroma_me=1/trellis=2/8x8dct=1/cqm=0/deadzone=21, 11/fast_pskip=1/chroma_qp_offset=-2/threads=34/lookahead_threads=5/sliced_threads=0/nr=0/decimate=1/interlaced=0/bluray_compat=0/constrained_intra=0/bframes=9/b_pyramid=2/b_adapt=2/b_bias=0/direct=1/weightb=1/open_gop=0/weightp=2/keyint=240/keyint_min=23/scenecut=40/intra_refresh=0/rc=crf/mbtree=0/crf=15.5000/qcomp=0.72/qpmin=0/qpmax=81/qpstep=4/ip_ratio=1.40/pb_ratio=1.30/aq=1: 0.85
Language : Japanese
Default : Yes
Forced : No
Color range : Limited
Color primaries : BT.709
Transfer characteristics : BT.709
Matrix coefficients : BT.709
Audio #1
ID : 2
Format : AAC LC
Format/Info : Advanced Audio Codec Low Complexity
Codec ID : A_AAC-2
Duration : 24 min 2 s
Bit rate : 192 kb/s
Channel(s) : 2 channels
Channel layout : L R
Sampling rate : 48.0 kHz
Frame rate : 46.875 FPS (1024 SPF)
Compression mode : Lossy
Stream size : 32.6 MiB (2%)
Title : AniDub Oni, Jade Ket, SergeiVasya, Oriko
Language : Russian
Default : Yes
Forced : No
Audio #2
ID : 3
Format : AAC LC
Format/Info : Advanced Audio Codec Low Complexity
Codec ID : A_AAC-2
Duration : 24 min 1 s
Bit rate : 192 kb/s
Channel(s) : 2 channels
Channel layout : L R
Sampling rate : 48.0 kHz
Frame rate : 46.875 FPS (1024 SPF)
Compression mode : Lossy
Delay relative to video : 9 ms
Stream size : 32.6 MiB (2%)
Title : AniLibria Anzen, Cleo-chan, HectoR, Hekomi, MyAska, Sharon
Language : Russian
Default : No
Forced : No
Audio #3
ID : 4
Format : AAC LC
Format/Info : Advanced Audio Codec Low Complexity
Codec ID : A_AAC-2
Duration : 24 min 2 s
Bit rate : 253 kb/s
Channel(s) : 2 channels
Channel layout : L R
Sampling rate : 48.0 kHz
Frame rate : 46.875 FPS (1024 SPF)
Compression mode : Lossy
Stream size : 43.6 MiB (3%)
Title : Kansai Studio MVO
Language : Russian
Default : No
Forced : No
Audio #4
ID : 5
Format : AAC LC
Format/Info : Advanced Audio Codec Low Complexity
Codec ID : A_AAC-2
Duration : 24 min 2 s
Bit rate : 192 kb/s
Channel(s) : 2 channels
Channel layout : L R
Sampling rate : 48.0 kHz
Frame rate : 46.875 FPS (1024 SPF)
Compression mode : Lossy
Stream size : 32.6 MiB (2%)
Title : Shiza Project Dancel, nDrOiDze, Viki, OkanaTsoy
Language : Russian
Default : No
Forced : No
Audio #5
ID : 6
Format : FLAC
Format/Info : Free Lossless Audio Codec
Codec ID : A_FLAC
Duration : 24 min 2 s
Bit rate mode : Variable
Bit rate : 1 407 kb/s
Channel(s) : 2 channels
Channel layout : L R
Sampling rate : 48.0 kHz
Frame rate : 11.719 FPS (4096 SPF)
Bit depth : 24 bits
Compression mode : Lossless
Stream size : 242 MiB (14%)
Title : Original
Writing library : libFLAC 1.3.1 (UTC 2014-11-25)
Language : Japanese
Default : No
Forced : No
Text #1
ID : 7
Format : ASS
Codec ID : S_TEXT/ASS
Codec ID/Info : Advanced Sub Station Alpha
Duration : 22 min 57 s
Bit rate : 6 b/s
Count of elements : 12
Compression mode : Lossless
Stream size : 1.06 KiB (0%)
Title : Forced Crunchyroll
Language : Russian
Default : Yes
Forced : No
Text #2
ID : 8
Format : ASS
Codec ID : S_TEXT/ASS
Codec ID/Info : Advanced Sub Station Alpha
Duration : 23 min 51 s
Bit rate : 160 b/s
Count of elements : 355
Compression mode : Lossless
Stream size : 28.1 KiB (0%)
Title : Full Crunchyroll
Language : Russian
Default : No
Forced : No
Menu
00: 00: 00.000 : en: Avant
00: 02: 51.045 : en: Part A
00: 10: 49.023 : en: Part B

Время раздачи: С 8: 00 по 18: 00 МСК (до появления первых 3-5 скачавших)
Понравился релиз? Ставь Оценку и нажми Спасибо
Это серьёзно меня мотивирует делать подобные релизы.
Если всем сердцем любишь аниме - подключайся и оставайся на раздаче максимально долго! Мои Релизы
За ретайминг звука и субтитров огромное спасибо DS2902
Полный список ретаймов


Онлайн видео Darling in the FranXX

Рейтинг →
 (голосов: 1, оценка 3/5, голосовать можно 1 раз )

Другие торренты по теме:

  • Darling in the Franxx / Возлюбленный во «ФранКс» [2018, TV, 1 из 12] WEB-DL 720p Raw+Rus
  • Darling in the Franxx | Любимый во Франксе [2018, TV, 3 из 24 эп.] BDrip 1080p raw
  • Darling in the Franxx | Любимый во Франксе [2018, TV, 24 эп.] BDRemux 1080p raw+rus
  • Darling in the Franxx | Любимый во Франксе [2018, TV, 01-24 из 24] BDRip 400p raw+rus


    • Комментарии (0):

      Информация

      Информация

        Посетители, находящиеся в группе Гости, не могут оставлять комментарии в данной новости.