Подписывайся на наш канал в Telegram https://t.me/torrentok и получи доступ к торрентам без ограничений!
.
Авторизация | Регистрация
torrent123.club


Oedo wa Nemurenai! | Эдо никогда не спит [1993, OVA, 1 эп.] VHSRip 480p 10bit raw торрент скачать бесплатно

Дата: 30-06-2020, 05:00 | .torrent скачали: 0

Oedo wa Nemurenai! | Эдо никогда не спит [1993, OVA, 1 эп.] VHSRip 480p 10bit rawЖанр: фэнтези, драма
Тип: OVA
Продолжительность: 1 эп. по 30 мин.
Количество серий: 1 из 1
Выпуск: 23.07.1993
Производство: студияMadhouse/マッドハウス Токио
Автор оригинала: Хонда Кэйко
Режиссер: Тигира Койти
Ссылки: World-Art, ANN, AniDB, MyAnimeList

Описание

Действие разворачивается во-времена существования увеселительных кварталов периода Эдо.
Вся округа шумит о прекрасной молодой куртизанке, которая может развлечь беседой любого мужчину. Девушка между тем отличается волевым характером, и тратить свое время и усилия на каждого, кто затребует ее компании - не желает, чем и накликает на себя гнев влиятельной семьи. Между тем, в прошлом героини сокрыта огромная тайна (тм), которую знают считанные люди, в т.ч. загадочный лекарь, переодически посещающий квартал, где живет народная любимица. Сможет ли девушка выпутаться из неприятностей, учитывая что преследуют ее не не только отвергнутые поклонники, но еще и непонятные мистические силы (тм) открывают на нее охоту?..
Качество видео: VHSRip
Видео: AVC (High10@L3.2) 10 bit, 640x480 (4: 3), ~24.057 fps, ~2105 kbps
Аудио: AAC LC, 2 ch, 48 kHz, ~265 kbps |Звук: Японский
Язык озвучки: Японский
Субтитры: Английские; Русские
Перевод: Orphan; World_Houp Аццкий Критег

Скриншоты для ознакомления




General
Unique ID : 213651096184349284688992958024809618635 (0xA0BBB45232FBE005B9B01AB61CE69CCB)
Complete name : Oedo wa Nemurenai!Orphan Oedo wa Nemurenai! v2 (VHS) 4DBA206A.mkv
Format : Matroska
Format version : Version 4
File size : 516 MiB
Duration : 30 min 21 s
Overall bit rate : 2 377 kb/s
Movie name : Orphan Oedo wa Nemurenai! v2
Encoded date : UTC 2020-05-30 21: 04: 38
Writing application : mkvmerge v7.8.0 (\'River Man\') 32bit built on Mar 27 2015 16: 18: 02
Writing library : libebml v1.3.1 + libmatroska v1.4.2
Attachments : 123Marker.ttf/AnnBrush.ttf/ARTIFICESSK.TTF/AveriaSerif-Bold.ttf/Beauregard Display SSi.ttf/Blambot Casual.ttf/Brush Strokes.ttf/BrushStroke 35 Normal.ttf/FOT-OedKtrStd-E(c).otf/FOT-SeuratPro-B(c).ttf/YaltaSansPro-Bold.ttf/YaltaSansPro-BoldItalic.ttf
Video
ID : 1
Format : AVC
Format/Info : Advanced Video Codec
Format profile : High10@L3.2
Format settings : CABAC/16 Ref Frames
Format settings, CABAC : Yes
Format settings, Reference : 16 frames
Codec ID : V_MPEG4/ISO/AVC
Duration : 30 min 21 s
Bit rate : 2 105 kb/s
Width : 640 pixels
Height : 480 pixels
Display aspect ratio : 4: 3
Frame rate mode : Variable
Frame rate : 24.057 FPS
Color space : YUV
Chroma subsampling : 4: 2: 0
Bit depth : 10 bits
Scan type : Progressive
Bits/(Pixel*Frame) : 0.285
Stream size : 457 MiB (89%)
Title : Video
Writing library : x264 core 155 r2917 0a84d98
Encoding settings : cabac=1/ref=16/deblock=1: -3: 3/analyse=0x3: 0x133/me=umh/subme=10/psy=1/psy_rd=0.40: 0.00/mixed_ref=1/me_range=24/chroma_me=1/trellis=2/8x8dct=1/cqm=0/deadzone=21, 11/fast_pskip=1/chroma_qp_offset=-2/threads=12/lookahead_threads=3/sliced_threads=0/nr=0/decimate=1/interlaced=0/bluray_compat=0/constrained_intra=0/bframes=12/b_pyramid=2/b_adapt=2/b_bias=0/direct=3/weightb=1/open_gop=0/weightp=2/keyint=250/keyint_min=25/scenecut=40/intra_refresh=0/rc_lookahead=60/rc=crf/mbtree=1/crf=14.5/qcomp=0.60/qpmin=0/qpmax=81/qpstep=4/ip_ratio=1.40/aq=2: 0.60
Default : Yes
Forced : No
Audio
ID : 2
Format : AAC LC
Format/Info : Advanced Audio Codec Low Complexity
Codec ID : A_AAC-2
Duration : 30 min 21 s
Bit rate : 265 kb/s
Channel(s) : 2 channels
Channel layout : L R
Sampling rate : 48.0 kHz
Frame rate : 46.875 FPS (1024 SPF)
Compression mode : Lossy
Stream size : 57.1 MiB (11%)
Title : Japanese audio
Language : Japanese
Default : Yes
Forced : No
Text
ID : 3
Format : ASS
Codec ID : S_TEXT/ASS
Codec ID/Info : Advanced Sub Station Alpha
Duration : 29 min 41 s
Bit rate : 1 603 b/s
Count of elements : 3348
Compression mode : Lossless
Stream size : 349 KiB (0%)
Title : English subtitles
Language : English
Default : Yes
Forced : No
Menu
00: 00: 00.000 : en: Prologue
00: 01: 42.390 : en: Edo Never Sleeps!
00: 28: 02.300 : en: End Credits
Время раздачи: круглосуточно
Рейтинг →
 (голосов: 1, оценка 5/5, голосовать можно 1 раз )

Другие торренты по теме:

  • Секрет детективного расследования: Сеть в Эдо / Onmitsu doshin: Oedo sosamo (1979) TVRip скачать через торрент бесплатно


    • Комментарии (0):

      Информация

      Информация

        Посетители, находящиеся в группе Гости, не могут оставлять комментарии в данной новости.