Подписывайся на наш канал в Telegram https://t.me/torrentok и получи доступ к торрентам без ограничений!
.
Авторизация | Регистрация
torrent123.club


Sequence | Секвенция [1992, OVA, 1 эп.] DVDRip 480p 10bit raw торрент скачать бесплатно

Дата: 30-06-2020, 05:00 | .torrent скачали: 0

Sequence | Секвенция [1992, OVA, 1 эп.] DVDRip 480p 10bit rawЖанр: романтика, фантастика
Тип: OVA
Продолжительность: 1 эп. по 40 мин.
Количество серий: 1 из 1
Выпуск: 18.03.1992
Автор оригинала: Мидзуки Кэн
Режиссер: Такахаси Наохито
Ссылки: World-Art, ANN, AniDB, MyAnimeList

Описание

Тосиаки и Мэгуми дружат с детства, но попав в происшествие в возрасте 6 лет Тосиаки забыл все, что с ним было до того дня и Мэгуми все еще иногда вздыхает об этом, хотя уже 10 лет прошло. Но однажды к ним в класс переводится новый ученик. Самоуверенный и напористый Тоно клеится к девушке, а потом заявляет Тосиаки, что помнит свои прошлые жизни. Да и самому Тосиаки кажется, что он слышит, как кто-то зовет его странным именем... В общем, перед нами аниме с перемещением во времени из будущего, перерождениями, телепатией и памятью о прошлых жизнях. А также про любовный треугольник, вернее, два - в будущем и настоящем. © World, World-Art
Качество видео: DVDRip
Видео: AVC (High 10@L4) 10 bit, 712x478 (4: 3), ~23.976 fps, ~2997 kbps
Аудио: AAC LC, 2 ch, 48 kHz, ~328 kbps |Звук: Японский
Язык озвучки: Японский
Субтитры: Русские
Перевод: World_Houp Аццкий Критег

Скриншоты для ознакомления




General
Unique ID : 171269683214098874454011720055480674859 (0x80D9575565214F05DD553A854B446A2B)
Complete name : SequenceOldCastle Sequence ABF01000.mkv
Format : Matroska
Format version : Version 4
File size : 1 002 MiB
Duration : 42 min 5 s
Overall bit rate : 3 328 kb/s
Encoded date : UTC 2018-01-12 19: 32: 16
Writing application : mkvmerge v19.0.0 (\'Brave Captain\') 64-bit
Writing library : libebml v1.3.5 + libmatroska v1.4.8
Attachments : MuseoSans-700Italic.otf/MuseoSans_700.otf
Video
ID : 1
Format : AVC
Format/Info : Advanced Video Codec
Format profile : High 10@L4
Format settings : CABAC/16 Ref Frames
Format settings, CABAC : Yes
Format settings, Reference : 16 frames
Codec ID : V_MPEG4/ISO/AVC
Duration : 42 min 5 s
Bit rate : 2 997 kb/s
Width : 712 pixels
Height : 478 pixels
Display aspect ratio : 4: 3
Original display aspect rat : 4: 3
Frame rate mode : Constant
Frame rate : 23.976 (24000/1001) FPS
Color space : YUV
Chroma subsampling : 4: 2: 0
Bit depth : 10 bits
Scan type : Progressive
Bits/(Pixel*Frame) : 0.367
Stream size : 902 MiB (90%)
Writing library : x264 core 148 r2692kMod 64f4e24
Encoding settings : cabac=1/ref=16/deblock=1: 0: 0/analyse=0x3: 0x133/me=umh/subme=10/psy=1/fade_compensate=1.00/psy_rd=0.80: 0.00/mixed_ref=1/me_range=24/chroma_me=1/trellis=2/8x8dct=1/cqm=0/deadzone=21, 11/fast_pskip=0/chroma_qp_offset=-2/threads=12/lookahead_threads=2/sliced_threads=0/nr=0/decimate=0/interlaced=0/bluray_compat=0/constrained_intra=0/fgo=0/bframes=8/b_pyramid=2/b_adapt=2/b_bias=0/direct=3/weightb=1/open_gop=0/weightp=2/keyint=240/keyint_min=23/scenecut=40/intra_refresh=0/rc_lookahead=60/rc=crf/mbtree=1/crf=12.0000/qcomp=0.60/qpmin=0/qpmax=81/qpstep=4/ip_ratio=1.40/aq=3: 0.80
Language : Japanese
Default : Yes
Forced : No
Color range : Limited
Matrix coefficients : BT.470 System B/G
Audio
ID : 2
Format : AAC LC
Format/Info : Advanced Audio Codec Low Complexity
Codec ID : A_AAC-2
Duration : 42 min 5 s
Bit rate : 328 kb/s
Channel(s) : 2 channels
Channel layout : L R
Sampling rate : 48.0 kHz
Frame rate : 46.875 FPS (1024 SPF)
Compression mode : Lossy
Delay relative to video : 20 ms
Stream size : 98.8 MiB (10%)
Language : Japanese
Default : Yes
Forced : No
Text
ID : 3
Format : ASS
Codec ID : S_TEXT/ASS
Codec ID/Info : Advanced Sub Station Alpha
Duration : 36 min 31 s
Bit rate : 218 b/s
Count of elements : 499
Compression mode : Lossless
Stream size : 58.5 KiB (0%)
Default : Yes
Forced : No
Menu #1
00: 00: 00.000 : en: Chapter 1
00: 02: 21.680 : en: Chapter 2
00: 04: 50.160 : en: Chapter 3
00: 09: 43.200 : en: Chapter 4
00: 13: 50.830 : en: Chapter 5
00: 18: 03.080 : en: Chapter 6
00: 24: 37.300 : en: Chapter 7
00: 28: 22.320 : en: Chapter 8
00: 35: 22.030 : en: Chapter 9
00: 37: 27.450 : en: Chapter 10
Menu #2
00: 00: 00.000 : en: Chapter 1
00: 02: 21.683 : en: Chapter 2
00: 04: 50.165 : en: Chapter 3
00: 09: 43.208 : en: Chapter 4
00: 13: 50.830 : en: Chapter 5
00: 18: 03.082 : en: Chapter 6
00: 24: 37.309 : en: Chapter 7
00: 28: 22.326 : en: Chapter 8
00: 35: 22.037 : en: Chapter 9
00: 37: 27.454 : en: Chapter 10
Время раздачи: круглосуточно
Рейтинг →
 (голосов: 1, оценка 4/5, голосовать можно 1 раз )

Другие торренты по теме:

  • KanColle | Kantai Collection | Fleet Girls Collection: Animation Sequence| Коллекционная флотилия [2014, TV, 1 из 12] HDTV 720p raw скачать через торрент бесплатно
  • KanColle | Kantai Collection | Fleet Girls Collection: Animation Sequence| Коллекционная флотилия [2015, TV, 6 из 12 эп.] BDrip 1080p Hi10P raw скачать через торрент бесплатно
  • Aleksi Perala - The Colundi Sequence Level 16 (2016) [FLAC|Lossless|WEB-DL|tracks] <Minimal, Techno>
  • Проекты - MotionMile - Haunted Title Sequence [AEP]
  • Проекты - AE CS3 - Logo opening sequence V02 [AEP]
  • KanColle | Kantai Collection| Коллекционная флотилия | Fleet Girls Collection: Animation Sequence [2015, TV, 12 эп.] BDrip 1080p Hi10P raw
  • Проекты - VideoHive - Electro - Electric Title Sequence + 16 Lighting Elements [AEP]
  • Проекты - VideoHive - War Titles Sequence [AEP]


    • Комментарии (0):

      Информация

      Информация

        Посетители, находящиеся в группе Гости, не могут оставлять комментарии в данной новости.