Подписывайся на наш канал в Telegram https://t.me/torrentok и получи доступ к торрентам без ограничений!
.
Авторизация | Регистрация
torrent123.club


Singles | Незамужние девушки [1993, OVA, 1 эп.] VHSRip 480p raw торрент скачать бесплатно

Дата: 30-06-2020, 05:00 | .torrent скачали: 0

Singles | Незамужние девушки [1993, OVA, 1 эп.] VHSRip 480p rawЖанр: романтика, повседневность
Тип: OVA
Продолжительность: 1 эп. по 30 мин.
Количество серий: 1 из 1
Выпуск: 28.05.1993
Производство: студияMadhouse/マッドハウス Токио
Автор оригинала: Фудзимура Мари
Режиссер: Абэ Цукаса
Ссылки: World-Art, ANN, AniDB, MyAnimeList

Описание

Еще со старших классов Саки была влюблена в своего семпая, но с ним начала встречаться ее старшая сестра. Картина начинается с вечеринки в честь поступления Саки в универ. Она собирается забыть о Канаме-семпае, но получает один подарок, еще и затягивается им в кинокружок и слышит предложение быть актрисой его конкурсной работы. Как тут выбросить свои чувства, когда еще и сестра сказала нечто такое, что не заснуть? А тут еще и оказывается, что другой парень из кинокружка снимал ее все это время. Ну, и на чем сердце успокоится? © World, World-Art
Качество видео: VHSRip
Видео: AVC (High@L4.1), 640x480 (4: 3), ~23.976 fps, ~2036 kbps
Аудио: AAC LC, 2 ch, 44.1 kHz, ~265 kbps |Звук: Японский
Язык озвучки: Японский
Субтитры: Английские; Русские
Перевод: Orphan; World_Houp Аццкий Критег

Скриншоты для ознакомления




General
Unique ID : 191996332254714345018686333576082296831 (0x9071260762953CAC951B97DF4C770FFF)
Complete name : SinglesOrphan Singles v2 (VHS) 9973F29C.mkv
Format : Matroska
Format version : Version 4
File size : 503 MiB
Duration : 30 min 28 s
Overall bit rate : 2 307 kb/s
Movie name : Orphan Singles v2
Encoded date : UTC 2019-07-12 20: 08: 58
Writing application : mkvmerge v7.8.0 (\'River Man\') 32bit built on Mar 27 2015 16: 18: 02
Writing library : libebml v1.3.1 + libmatroska v1.4.2
Attachments : A-OTF-BokutohNStd-Bold.otf/ARABOLIC.TTF/ArchitectsDaughter.ttf/BAUHS93.TTF/Dylan.ttf/FOT Rodin Pro EB.ttf/FOT-OedKtrStd-E(c).otf/HANDWRITTEN_CRYSTAL_V2.TTF/Lato-Bol.ttf/Pen_of_Truth___FREE_FONT_by_Sonira.ttf/YaltaSansPro-Bold.ttf/YaltaSansPro-BoldItalic.ttf
Video
ID : 1
Format : AVC
Format/Info : Advanced Video Codec
Format profile : High@L4.1
Format settings : CABAC/16 Ref Frames
Format settings, CABAC : Yes
Format settings, Reference : 16 frames
Codec ID : V_MPEG4/ISO/AVC
Duration : 30 min 28 s
Bit rate : 2 036 kb/s
Width : 640 pixels
Height : 480 pixels
Display aspect ratio : 4: 3
Frame rate mode : Constant
Frame rate : 23.976 (24000/1001) FPS
Color space : YUV
Chroma subsampling : 4: 2: 0
Bit depth : 8 bits
Scan type : Progressive
Bits/(Pixel*Frame) : 0.276
Stream size : 444 MiB (88%)
Title : Video
Writing library : x264 core 148 r2665 a01e339
Encoding settings : cabac=1/ref=16/deblock=1: 1: 1/analyse=0x3: 0x133/me=umh/subme=9/psy=1/psy_rd=0.80: 0.20/mixed_ref=1/me_range=16/chroma_me=1/trellis=2/8x8dct=1/cqm=0/deadzone=21, 11/fast_pskip=1/chroma_qp_offset=-3/threads=9/lookahead_threads=1/sliced_threads=0/nr=0/decimate=1/interlaced=0/bluray_compat=0/constrained_intra=0/bframes=5/b_pyramid=2/b_adapt=2/b_bias=0/direct=3/weightb=1/open_gop=0/weightp=2/keyint=240/keyint_min=24/scenecut=40/intra_refresh=0/rc_lookahead=60/rc=crf/mbtree=1/crf=19.0/qcomp=0.60/qpmin=0/qpmax=69/qpstep=4/vbv_maxrate=40000/vbv_bufsize=40000/crf_max=0.0/nal_hrd=none/filler=0/ip_ratio=1.40/aq=1: 0.80
Default : Yes
Forced : No
Audio
ID : 2
Format : AAC LC
Format/Info : Advanced Audio Codec Low Complexity
Codec ID : A_AAC-2
Duration : 30 min 28 s
Bit rate : 265 kb/s
Channel(s) : 2 channels
Channel layout : L R
Sampling rate : 44.1 kHz
Frame rate : 43.066 FPS (1024 SPF)
Compression mode : Lossy
Delay relative to video : 22 ms
Stream size : 57.3 MiB (11%)
Title : Japanese audio
Language : Japanese
Default : Yes
Forced : No
Text
ID : 3
Format : ASS
Codec ID : S_TEXT/ASS
Codec ID/Info : Advanced Sub Station Alpha
Duration : 29 min 20 s
Bit rate : 330 b/s
Count of elements : 841
Compression mode : Lossless
Stream size : 71.1 KiB (0%)
Title : English subtitles
Language : English
Default : Yes
Forced : No
Menu
00: 00: 00.000 : en: Prologue
00: 02: 44.350 : en: Opening Credits
00: 05: 16.500 : en: Kaname
00: 11: 41.880 : en: Nori
00: 17: 42.880 : en: Tachibana
00: 25: 45.560 : en: Saki
00: 28: 04.490 : en: End Credits
Время раздачи: круглосуточно

Онлайн видео Singles

Рейтинг →
 (голосов: 1, оценка 3/5, голосовать можно 1 раз )

Другие торренты по теме:

  • Armin van Buuren - Anthems (Ultimate Singles Collected) (2014) [FLAC|Lossless]<Trance, Vocal Trance,Progressive Trance.> скачать через торрент бесплатно
  • Дельфин (Dolphin) - 12 Albums+2 Compilations+2 Live+2 Singles+2 Bootleg (Различные издания) (1992-2014) [FLAC|Lossless]<Alternative, Experimental, Hip Hop, Electronic>
  • VA - The Official UK Top 40 Singles Chart (01-02-2015) [MP3|320 кб / с]<Pop, Dance, Rock, R&B, Other>
  • Of Monsters And Men - 2 CD, 4 EP & singles (2011-2012) [MP3|320 кб / с]<Indie, Alternative Rock, Folk>
  • VA - The Official UK Top 40 Singles Chart (01-03-2015) [MP3|320 кб / с]<Pop, Dance, Rock, R&B, Other> скачать через торрент бесплатно
  • Room Nine Unlimited (R9U) - 4 Albums, 16 EPs, 6 Singles (2012 - 2015) [FLAC|Lossless|WEB-DL] <Psy-Trance, Progressive Trance, Experimental, Downtempo> скачать через торрент бесплатно
  • THE M MACHINE - 4 EP Albums, Singles, Remixes (2011-2014) [MP3|320 кб / с]<Dubstep, Electro House, Indie Dance, Progressive House> скачать через торрент бесплатно
  • CMA - 1 Album, 3 EPS, 5 Singles (2012 - 2015) [FLAC|Lossless|WEB-DL] <Chillstep, Liquid Drum & Bass, Melodic Dubstep> скачать через торрент бесплатно


    • Комментарии (0):

      Информация

      Информация

        Посетители, находящиеся в группе Гости, не могут оставлять комментарии в данной новости.