Подписывайся на наш канал в Telegram https://t.me/torrentok и получи доступ к торрентам без ограничений!
.
Авторизация | Регистрация
torrent123.club
Торрент трекер | Скачать торрент | Скачать Через Торрент | Скачать торрент бесплатно | Скачать торрент без регистрации Мультфильмы торрент скачать Akagami no Shirayukihime | Красноволосая Белоснежка [2015, TV, 24 ep + 1 OVA] BDRip 1080p 10-bit raw+rus торрент скачать бесплатно


    Akagami no Shirayukihime | Красноволосая Белоснежка [2015, TV, 24 ep + 1 OVA] BDRip 1080p 10-bit raw+rus торрент скачать бесплатно

    Дата: 1-07-2020, 05:00 | .torrent скачали: 0

    Akagami no Shirayukihime | Красноволосая Белоснежка [2015, TV, 24 ep + 1 OVA] BDRip 1080p 10-bit raw+rusТип: TV
    Жанр: Фэнтези, Романтика
    Продолжительность: 25 Эпизодов по 23 Мин
    Количество серий: 25 Эпизодов
    Дата выпуска: c07.07.2015 по29.03.2016
    Автор оригинала: Акидзуки Сората
    Режиссер: Андо Масахиро
    Производство: Bones, Япония

    World-Art | AniDB | MyAnimelist | Shikimori

    Описание

    История повествует о молодой девушке по имени Шираюки — обладательнице редчайших волос, таких же красных, как спелые наливные яблоки. Несмотря на щедрый подарок природы, писаную и необычную красоту, девушка ведёт образ жизни простолюдинки, которой нет дела до роскошного королевского замка, возвышающегося посреди её родного города. А до его высокородных обитателей ей нет дела вдвойне.
    Но однажды равнодушие улетучивается. Причиной тому становится богатый, но прослывший своей глупостью принц, влюбившийся в девушку с первого взгляда. Невзирая на её собственные желания и чувства, принц решает во что бы то ни стало добиться расположения красноволосой девицы. Поглощённая мыслями о том, как избавиться от свалившейся на неё напасти, Шираюки обрезает прекрасные волосы и решает спастись от напористого мужа королевских кровей, иммигрировав в соседнюю страну.
    Удирая через лес, беглянка знакомится с молодым человеком по имени Зен, который помогает ей избавиться от погони. Что теперь произойдёт с Шираюки, потерявшей возможность вернуться на родину? И кто на самом деле её загадочный новый друг?
    Автор: Zepheles ©Shikimori
    Видео Сэмпл: Download
    Качество Видео: BDRip
    Видео: HEVC / x265 , 1920x1080, 23.976 fps, 4 885 kb/s, 0.098 bpp 10-bit
    Язык Озвучки: Японский и Русский
    Озвучка: Двухголосая, Многоголосая закадровая
    Аудио №1: AAC2.0 , 48.0 kHz, 192 kb/s( AniDub ) |Язык:
    Аудио №2: AAC2.0 , 48.0 kHz, 192 kb/s( AniLibria ) |Язык:
    Аудио №3: AAC2.0 , 48.0 kHz, 192 kb/s( AniFilm ) |Язык:
    Аудио №4: AAC2.0 , 48.0 kHz, 192 kb/s( Anything Group ) |Язык:
    Аудио №5: FLAC2.0 , 48.0 kHz, 1 407 kb/s( Original ) |Язык:
    Субтитры: Надписи, Полные( YakuSub Studio )
    Скриншоты:


    TV-1

    OVA


    TV-2



    TV-1
    01 . Encounter... Changing the Color of Fate (Встреча... меняющая цвет судьбы)
    02 . Following the Sound of Your Heart (Следуй зову своего сердца)
    03 . Shining Time of Promise (Яркое время клятвы)
    04 . From the Small Hand, a Burgeoning Concerto Resonates (В маленькой руке откликается громкая мелодия)
    05 . This Path, the Crystallization of Premonition (Путь, кристаллизованный предчувствием)
    06 . The Back Full of Meaning (Многозначительное возвращение)
    07 . Let Me Hear the Melody of Your Smile (Позволь услышать мелодию твоей улыбки)
    08 . Memories Draw Spirals of the Past (Воспоминания рисуют спирали прошлого...)
    09 . Feelings That Connect and Reach. 25m (Чувства, что связывают и достигают)
    10 . Inexperienced Heart, Going Deeper (Непостижимое, неопытное сердце)
    11 . Encountering... A Color for the First Time (Цвет... первого раза)
    12 . Goodbye to the Beginning (Прощай, начало)
    OVA
    01 . Nandemonai Takaramono, Kono Page (Отдельная страница. Простое сокровище)
    TV-2
    01 . The Red That Spins Fate (Судьбоносный красный цвет)
    02 . Eyes That Protect and Look Foward (Взгляды заботы и ожидания)
    03 . Indecision Caused by Confusion (Нерешительность, вызванная замешательством)
    04 . The Name of That Step Is Change (Этот шаг называется перемены)
    05 . Prologue of the Quietly Twisting Night (Пролог тихой переломной ночи)
    06 . Many Different Resolves (Ряд решений)
    07 . Wave of Determination (Волна решимости)
    08 . The Temperature of a Smile, a Cherished Place (Жар улыбки, заветное место)
    09 . When I m with You (Когда я с тобой...)
    10 . The Spring of Intent Will Quench Your Thirst (Глоток из родника решимости)
    11 . The Future Because of Who You Are (Будущее зависит от того, кто ты)
    12 . My Story, My Path (Сказка, мой путь)


    General
    Unique ID : 339553376698353466615499693816754418984 (0xFF739A01CF50F96CE019753AED973528)
    Complete name : J: АнимеКрасноволосая Белоснежка (Akagami no Shirayukihime) BDRip (2015-2016)1 (Akagami no Shirayukihime TV-1) 01. Encounter... Changing the Color of Fate (Встреча... меняющая цвет судьбы).mkv
    Format : Matroska
    Format version : Version 4
    File size : 1.21 GiB
    Duration : 24 min 13 s
    Overall bit rate mode : Variable
    Overall bit rate : 7 176 kb/s
    Encoded date : UTC 2020-05-01 05: 04: 09
    Writing application : mkvmerge v43.0.0 (\'The Quartermaster\') 64-bit
    Writing library : libebml v1.3.10 + libmatroska v1.5.2
    Attachments : ChinacaT (Regular).ttf/Constantia (Regular).ttf/Corrida (Cyrillic).ttf/Segoe UI (Italic).ttf/Segoe UI Semilight (Regular).ttf/Times New Roman (Regular).ttf/Trebuchet MS (Bold Italic).ttf/Batang Gungsuh (Family).ttc
    Video
    ID : 1
    Format : HEVC
    Format/Info : High Efficiency Video Coding
    Format profile : Main 10@L4@High
    Codec ID : V_MPEGH/ISO/HEVC
    Duration : 24 min 13 s
    Bit rate : 4 885 kb/s
    Width : 1 920 pixels
    Height : 1 080 pixels
    Display aspect ratio : 16: 9
    Frame rate mode : Constant
    Frame rate : 23.976 (24000/1001) FPS
    Color space : YUV
    Chroma subsampling : 4: 2: 0
    Bit depth : 10 bits
    Bits/(Pixel*Frame) : 0.098
    Stream size : 846 MiB (68%)
    Writing library : x265 3.3+1-g396395b2b: WindowsGCC 9.2.064 bit 10bit
    Encoding settings : cpuid=1111039/frame-threads=5/numa-pools=32, 0/wpp/no-pmode/no-pme/no-psnr/no-ssim/log-level=2/input-csp=1/input-res=1920x1080/interlace=0/total-frames=34840/level-idc=0/high-tier=1/uhd-bd=0/ref=4/no-allow-non-conformance/no-repeat-t_heads/annexb/no-aud/no-hrd/info/hash=0/no-temporal-layers/no-open-gop/min-keyint=50/keyint=360/gop-lookahead=0/bframes=10/b-adapt=2/b-pyramid/bframe-bias=0/rc-lookahead=60/lookahead-slices=4/scenecut=40/hist-scenecut=0/radl=0/no-splice/no-intra-refresh/ctu=32/min-cu-size=8/no-rect/no-amp/max-tu-size=32/tu-inter-depth=2/tu-intra-depth=2/limit-tu=0/rdoq-level=2/dynamic-rd=0.00/no-ssim-rd/signhide/no-tskip/nr-intra=0/nr-inter=0/no-constrained-intra/no-strong-intra-smoothing/max-merge=3/limit-refs=2/limit-modes/me=3/subme=4/merange=44/temporal-mvp/no-frame-dup/no-hme/weightp/weightb/no-analyze-src-pics/deblock=-1: -1/no-sao/no-sao-non-deblock/rd=5/selective-sao=0/no-early-skip/rskip/no-fast-intra/no-tskip-fast/no-cu-lossless/no-b-intra/no-splitrd-skip/rdpenalty=0/psy-rd=1.50/psy-rdoq=2.00/no-rd-refine/no-lossless/cbqpoffs=-2/crqpoffs=-2/rc=crf/crf=16.0/qcomp=0.62/qpstep=4/stats-write=0/stats-read=0/vbv-maxrate=28000/vbv-bufsize=35000/vbv-init=0.9/crf-max=0.0/crf-min=0.0/ipratio=1.40/pbratio=1.30/aq-mode=2/aq-strength=0.72/no-cutree/zone-count=0/no-strict-cbr/qg-size=32/no-rc-grain/qpmax=69/qpmin=0/no-const-vbv/sar=0/overscan=0/videoformat=5/range=0/colorprim=1/transfer=1/colormatrix=2/chromaloc=0/display-window=0/cll=0, 0/min-luma=0/max-luma=1023/log2-max-poc-lsb=8/vui-timing-info/vui-hrd-info/slices=1/no-opt-qp-pps/no-opt-ref-list-length-pps/no-multi-pass-opt-rps/scenecut-bias=0.05/hist-threshold=0.01/no-opt-cu-delta-qp/no-aq-motion/no-hdr10/no-hdr10-opt/no-dhdr10-opt/no-idr-recovery-sei/analysis-reuse-level=0/analysis-save-reuse-level=0/analysis-load-reuse-level=0/scale-factor=0/refine-intra=0/refine-inter=0/refine-mv=1/refine-ctu-distortion=0/no-limit-sao/ctu-info=0/no-lowpass-dct/refine-analysis-type=0/copy-pic=1/max-ausize-factor=1.0/no-dynamic-refine/no-single-sei/no-hevc-aq/no-svt/no-field/qp-adaptation-range=1.00/no-scenecut-aware-qpconformance-window-offsets/right=0/bottom=0
    Language : Japanese
    Default : Yes
    Forced : No
    Color range : Limited
    Color primaries : BT.709
    Transfer characteristics : BT.709
    Audio #1
    ID : 2
    Format : AAC LC
    Format/Info : Advanced Audio Codec Low Complexity
    Codec ID : A_AAC-2
    Duration : 24 min 13 s
    Bit rate : 192 kb/s
    Channel(s) : 2 channels
    Channel layout : L R
    Sampling rate : 48.0 kHz
    Frame rate : 46.875 FPS (1024 SPF)
    Compression mode : Lossy
    Stream size : 33.3 MiB (3%)
    Title : AniDub (Kiara_Laine FruKt Fuurou)
    Language : Russian
    Default : Yes
    Forced : No
    Audio #2
    ID : 3
    Format : AAC LC
    Format/Info : Advanced Audio Codec Low Complexity
    Codec ID : A_AAC-2
    Duration : 24 min 13 s
    Bit rate : 192 kb/s
    Channel(s) : 2 channels
    Channel layout : L R
    Sampling rate : 48.0 kHz
    Frame rate : 46.875 FPS (1024 SPF)
    Compression mode : Lossy
    Stream size : 33.3 MiB (3%)
    Title : AniLibria (Kona_chan Kari HectoR)
    Language : Russian
    Default : No
    Forced : No
    Audio #3
    ID : 4
    Format : AAC LC
    Format/Info : Advanced Audio Codec Low Complexity
    Codec ID : A_AAC-2
    Duration : 24 min 13 s
    Bit rate : 192 kb/s
    Channel(s) : 2 channels
    Channel layout : L R
    Sampling rate : 48.0 kHz
    Frame rate : 46.875 FPS (1024 SPF)
    Compression mode : Lossy
    Stream size : 33.3 MiB (3%)
    Title : AniFilm (MezIdA Soer)
    Language : Russian
    Default : No
    Forced : No
    Audio #4
    ID : 5
    Format : AAC LC
    Format/Info : Advanced Audio Codec Low Complexity
    Codec ID : A_AAC-2
    Duration : 24 min 13 s
    Bit rate : 192 kb/s
    Channel(s) : 2 channels
    Channel layout : L R
    Sampling rate : 48.0 kHz
    Frame rate : 46.875 FPS (1024 SPF)
    Compression mode : Lossy
    Stream size : 33.3 MiB (3%)
    Title : Anything Group (Milirina Sad_kit)
    Language : Russian
    Default : No
    Forced : No
    Audio #5
    ID : 6
    Format : FLAC
    Format/Info : Free Lossless Audio Codec
    Codec ID : A_FLAC
    Duration : 24 min 13 s
    Bit rate mode : Variable
    Bit rate : 1 407 kb/s
    Channel(s) : 2 channels
    Channel layout : L R
    Sampling rate : 48.0 kHz
    Frame rate : 11.719 FPS (4096 SPF)
    Bit depth : 24 bits
    Compression mode : Lossless
    Stream size : 244 MiB (20%)
    Title : Original
    Writing library : libFLAC 1.3.2 (UTC 2017-01-01)
    Language : Japanese
    Default : No
    Forced : No
    Text #1
    ID : 7
    Format : ASS
    Codec ID : S_TEXT/ASS
    Codec ID/Info : Advanced Sub Station Alpha
    Duration : 24 min 10 s
    Bit rate : 63 b/s
    Count of elements : 31
    Compression mode : Lossless
    Stream size : 11.3 KiB (0%)
    Title : Forced (YakuSub Studio)
    Language : Russian
    Default : Yes
    Forced : No
    Text #2
    ID : 8
    Format : ASS
    Codec ID : S_TEXT/ASS
    Codec ID/Info : Advanced Sub Station Alpha
    Duration : 24 min 10 s
    Bit rate : 200 b/s
    Count of elements : 361
    Compression mode : Lossless
    Stream size : 35.5 KiB (0%)
    Title : Full (YakuSub Studio)
    Language : Russian
    Default : No
    Forced : No
    Menu
    00: 00: 00.000 : : Avant
    00: 01: 23.054 : : Part A
    00: 13: 00.098 : : Part B
    00: 22: 26.021 : : ED
    00: 23: 56.001 : : Next



    General
    Unique ID : 41296143362359537238512241239279986033 (0x1F1159108F3A35BD6FE8921DA62EE571)
    Complete name : J: АнимеКрасноволосая Белоснежка (Akagami no Shirayukihime) BDRip (2015-2016)13 (Akagami no Shirayukihime OVA) 01. Nandemonai Takaramono, Kono Page (Отдельная страница. Простое сокровище).mkv
    Format : Matroska
    Format version : Version 4
    File size : 1.30 GiB
    Duration : 24 min 2 s
    Overall bit rate mode : Variable
    Overall bit rate : 7 768 kb/s
    Encoded date : UTC 2020-04-30 14: 19: 08
    Writing application : mkvmerge v43.0.0 (\'The Quartermaster\') 64-bit
    Writing library : libebml v1.3.10 + libmatroska v1.5.2
    Attachments : Batang Gungsuh (Family).ttc/ChinacaT (Regular).ttf/Constantia (Regular).ttf/Corrida (Cyrillic).ttf/Segoe UI (Italic).ttf/Segoe UI Semilight (Regular).ttf/Times New Roman (Regular).ttf/Trebuchet MS (Bold Italic).ttf
    Video
    ID : 1
    Format : HEVC
    Format/Info : High Efficiency Video Coding
    Format profile : Main 10@L4@High
    Codec ID : V_MPEGH/ISO/HEVC
    Duration : 24 min 2 s
    Bit rate : 5 438 kb/s
    Width : 1 920 pixels
    Height : 1 080 pixels
    Display aspect ratio : 16: 9
    Frame rate mode : Constant
    Frame rate : 23.976 (24000/1001) FPS
    Color space : YUV
    Chroma subsampling : 4: 2: 0
    Bit depth : 10 bits
    Bits/(Pixel*Frame) : 0.109
    Stream size : 935 MiB (70%)
    Writing library : x265 3.3+1-g396395b2b: WindowsGCC 9.2.064 bit 10bit
    Encoding settings : cpuid=1111039/frame-threads=5/numa-pools=32, 0/wpp/no-pmode/no-pme/no-psnr/no-ssim/log-level=2/input-csp=1/input-res=1920x1080/interlace=0/total-frames=301/level-idc=0/high-tier=1/uhd-bd=0/ref=4/no-allow-non-conformance/no-repeat-t_heads/annexb/no-aud/no-hrd/info/hash=0/no-temporal-layers/no-open-gop/min-keyint=50/keyint=360/gop-lookahead=0/bframes=10/b-adapt=2/b-pyramid/bframe-bias=0/rc-lookahead=60/lookahead-slices=4/scenecut=40/hist-scenecut=0/radl=0/no-splice/no-intra-refresh/ctu=32/min-cu-size=8/no-rect/no-amp/max-tu-size=32/tu-inter-depth=2/tu-intra-depth=2/limit-tu=0/rdoq-level=2/dynamic-rd=0.00/no-ssim-rd/signhide/no-tskip/nr-intra=0/nr-inter=0/no-constrained-intra/no-strong-intra-smoothing/max-merge=3/limit-refs=2/limit-modes/me=3/subme=4/merange=44/temporal-mvp/no-frame-dup/no-hme/weightp/weightb/no-analyze-src-pics/deblock=-1: -1/no-sao/no-sao-non-deblock/rd=5/selective-sao=0/no-early-skip/rskip/no-fast-intra/no-tskip-fast/no-cu-lossless/no-b-intra/no-splitrd-skip/rdpenalty=0/psy-rd=1.50/psy-rdoq=2.00/no-rd-refine/no-lossless/cbqpoffs=-2/crqpoffs=-2/rc=crf/crf=16.0/qcomp=0.62/qpstep=4/stats-write=0/stats-read=0/vbv-maxrate=28000/vbv-bufsize=35000/vbv-init=0.9/crf-max=0.0/crf-min=0.0/ipratio=1.40/pbratio=1.30/aq-mode=2/aq-strength=0.72/no-cutree/zone-count=0/no-strict-cbr/qg-size=32/no-rc-grain/qpmax=69/qpmin=0/no-const-vbv/sar=0/overscan=0/videoformat=5/range=0/colorprim=1/transfer=1/colormatrix=2/chromaloc=0/display-window=0/cll=0, 0/min-luma=0/max-luma=1023/log2-max-poc-lsb=8/vui-timing-info/vui-hrd-info/slices=1/no-opt-qp-pps/no-opt-ref-list-length-pps/no-multi-pass-opt-rps/scenecut-bias=0.05/hist-threshold=0.01/no-opt-cu-delta-qp/no-aq-motion/no-hdr10/no-hdr10-opt/no-dhdr10-opt/no-idr-recovery-sei/analysis-reuse-level=0/analysis-save-reuse-level=0/analysis-load-reuse-level=0/scale-factor=0/refine-intra=0/refine-inter=0/refine-mv=1/refine-ctu-distortion=0/no-limit-sao/ctu-info=0/no-lowpass-dct/refine-analysis-type=0/copy-pic=1/max-ausize-factor=1.0/no-dynamic-refine/no-single-sei/no-hevc-aq/no-svt/no-field/qp-adaptation-range=1.00/no-scenecut-aware-qpconformance-window-offsets/right=0/bottom=0
    Language : Japanese
    Default : Yes
    Forced : No
    Color range : Limited
    Color primaries : BT.709
    Transfer characteristics : BT.709
    Audio #1
    ID : 2
    Format : AAC LC
    Format/Info : Advanced Audio Codec Low Complexity
    Codec ID : A_AAC-2
    Duration : 24 min 2 s
    Bit rate : 192 kb/s
    Channel(s) : 2 channels
    Channel layout : L R
    Sampling rate : 48.0 kHz
    Frame rate : 46.875 FPS (1024 SPF)
    Compression mode : Lossy
    Stream size : 33.0 MiB (2%)
    Title : AniDub (Kiara_Laine FruKt Fuurou)
    Language : Russian
    Default : Yes
    Forced : No
    Audio #2
    ID : 3
    Format : AAC LC
    Format/Info : Advanced Audio Codec Low Complexity
    Codec ID : A_AAC-2
    Duration : 24 min 2 s
    Bit rate : 192 kb/s
    Channel(s) : 2 channels
    Channel layout : L R
    Sampling rate : 48.0 kHz
    Frame rate : 46.875 FPS (1024 SPF)
    Compression mode : Lossy
    Stream size : 33.0 MiB (2%)
    Title : AniLibria (Kona_chan Kari HectoR)
    Language : Russian
    Default : No
    Forced : No
    Audio #3
    ID : 4
    Format : AAC LC
    Format/Info : Advanced Audio Codec Low Complexity
    Codec ID : A_AAC-2
    Duration : 24 min 2 s
    Bit rate : 192 kb/s
    Channel(s) : 2 channels
    Channel layout : L R
    Sampling rate : 48.0 kHz
    Frame rate : 46.875 FPS (1024 SPF)
    Compression mode : Lossy
    Stream size : 33.0 MiB (2%)
    Title : AniFilm (MezIdA Soer)
    Language : Russian
    Default : No
    Forced : No
    Audio #4
    ID : 5
    Format : AAC LC
    Format/Info : Advanced Audio Codec Low Complexity
    Codec ID : A_AAC-2
    Duration : 24 min 2 s
    Bit rate : 192 kb/s
    Channel(s) : 2 channels
    Channel layout : L R
    Sampling rate : 48.0 kHz
    Frame rate : 46.875 FPS (1024 SPF)
    Compression mode : Lossy
    Stream size : 33.0 MiB (2%)
    Title : Anything Group (Milirina Sad_kit)
    Language : Russian
    Default : No
    Forced : No
    Audio #5
    ID : 6
    Format : FLAC
    Format/Info : Free Lossless Audio Codec
    Codec ID : A_FLAC
    Duration : 24 min 2 s
    Bit rate mode : Variable
    Bit rate : 1 445 kb/s
    Channel(s) : 2 channels
    Channel layout : L R
    Sampling rate : 48.0 kHz
    Frame rate : 11.719 FPS (4096 SPF)
    Bit depth : 24 bits
    Compression mode : Lossless
    Stream size : 249 MiB (19%)
    Title : Original
    Writing library : libFLAC 1.3.2 (UTC 2017-01-01)
    Language : Japanese
    Default : No
    Forced : No
    Text #1
    ID : 7
    Format : ASS
    Codec ID : S_TEXT/ASS
    Codec ID/Info : Advanced Sub Station Alpha
    Duration : 21 min 31 s
    Bit rate : 156 b/s
    Count of elements : 52
    Compression mode : Lossless
    Stream size : 24.7 KiB (0%)
    Title : Forced (YakuSub Studio)
    Language : Russian
    Default : Yes
    Forced : No
    Text #2
    ID : 8
    Format : ASS
    Codec ID : S_TEXT/ASS
    Codec ID/Info : Advanced Sub Station Alpha
    Duration : 23 min 48 s
    Bit rate : 280 b/s
    Count of elements : 386
    Compression mode : Lossless
    Stream size : 48.9 KiB (0%)
    Title : Full (YakuSub Studio)
    Language : Russian
    Default : No
    Forced : No
    Menu
    00: 00: 00.000 : : Avant
    00: 02: 21.015 : : OP
    00: 03: 51.022 : : Part A
    00: 13: 16.962 : : Part B
    00: 22: 25.969 : : ED



    General
    Unique ID : 330624733928523647334641528141021541133 (0xF8BC01EE5331FB936BAF68E634D9730D)
    Complete name : J: АнимеКрасноволосая Белоснежка (Akagami no Shirayukihime) BDRip (2015-2016)14 (Akagami no Shirayukihime TV-2) 01. The Red That Spins Fate (Судьбоносный красный цвет).mkv
    Format : Matroska
    Format version : Version 4
    File size : 1.25 GiB
    Duration : 24 min 13 s
    Overall bit rate mode : Variable
    Overall bit rate : 7 384 kb/s
    Encoded date : UTC 2020-05-01 05: 24: 09
    Writing application : mkvmerge v43.0.0 (\'The Quartermaster\') 64-bit
    Writing library : libebml v1.3.10 + libmatroska v1.5.2
    Attachments : ChinacaT (Regular).ttf/Constantia (Regular).ttf/Corrida (Cyrillic).ttf/Segoe UI (Bold).ttf/Segoe UI (Italic).ttf/Segoe UI Semilight (Regular).ttf/Times New Roman (Regular).ttf/Trebuchet MS (Bold Italic).ttf/Batang Gungsuh (Family).ttc
    Video
    ID : 1
    Format : HEVC
    Format/Info : High Efficiency Video Coding
    Format profile : Main 10@L4@High
    Codec ID : V_MPEGH/ISO/HEVC
    Duration : 24 min 13 s
    Bit rate : 5 096 kb/s
    Width : 1 920 pixels
    Height : 1 080 pixels
    Display aspect ratio : 16: 9
    Frame rate mode : Constant
    Frame rate : 23.976 (24000/1001) FPS
    Color space : YUV
    Chroma subsampling : 4: 2: 0
    Bit depth : 10 bits
    Bits/(Pixel*Frame) : 0.102
    Stream size : 883 MiB (69%)
    Writing library : x265 3.3+1-g396395b2b: WindowsGCC 9.2.064 bit 10bit
    Encoding settings : cpuid=1111039/frame-threads=5/numa-pools=32, 0/wpp/no-pmode/no-pme/no-psnr/no-ssim/log-level=2/input-csp=1/input-res=1920x1080/interlace=0/total-frames=34840/level-idc=0/high-tier=1/uhd-bd=0/ref=4/no-allow-non-conformance/no-repeat-t_heads/annexb/no-aud/no-hrd/info/hash=0/no-temporal-layers/no-open-gop/min-keyint=50/keyint=360/gop-lookahead=0/bframes=10/b-adapt=2/b-pyramid/bframe-bias=0/rc-lookahead=60/lookahead-slices=4/scenecut=40/hist-scenecut=0/radl=0/no-splice/no-intra-refresh/ctu=32/min-cu-size=8/no-rect/no-amp/max-tu-size=32/tu-inter-depth=2/tu-intra-depth=2/limit-tu=0/rdoq-level=2/dynamic-rd=0.00/no-ssim-rd/signhide/no-tskip/nr-intra=0/nr-inter=0/no-constrained-intra/no-strong-intra-smoothing/max-merge=3/limit-refs=2/limit-modes/me=3/subme=4/merange=44/temporal-mvp/no-frame-dup/no-hme/weightp/weightb/no-analyze-src-pics/deblock=-1: -1/no-sao/no-sao-non-deblock/rd=5/selective-sao=0/no-early-skip/rskip/no-fast-intra/no-tskip-fast/no-cu-lossless/no-b-intra/no-splitrd-skip/rdpenalty=0/psy-rd=1.50/psy-rdoq=2.00/no-rd-refine/no-lossless/cbqpoffs=-2/crqpoffs=-2/rc=crf/crf=16.0/qcomp=0.62/qpstep=4/stats-write=0/stats-read=0/vbv-maxrate=28000/vbv-bufsize=35000/vbv-init=0.9/crf-max=0.0/crf-min=0.0/ipratio=1.40/pbratio=1.30/aq-mode=2/aq-strength=0.72/no-cutree/zone-count=0/no-strict-cbr/qg-size=32/no-rc-grain/qpmax=69/qpmin=0/no-const-vbv/sar=0/overscan=0/videoformat=5/range=0/colorprim=1/transfer=1/colormatrix=2/chromaloc=0/display-window=0/cll=0, 0/min-luma=0/max-luma=1023/log2-max-poc-lsb=8/vui-timing-info/vui-hrd-info/slices=1/no-opt-qp-pps/no-opt-ref-list-length-pps/no-multi-pass-opt-rps/scenecut-bias=0.05/hist-threshold=0.01/no-opt-cu-delta-qp/no-aq-motion/no-hdr10/no-hdr10-opt/no-dhdr10-opt/no-idr-recovery-sei/analysis-reuse-level=0/analysis-save-reuse-level=0/analysis-load-reuse-level=0/scale-factor=0/refine-intra=0/refine-inter=0/refine-mv=1/refine-ctu-distortion=0/no-limit-sao/ctu-info=0/no-lowpass-dct/refine-analysis-type=0/copy-pic=1/max-ausize-factor=1.0/no-dynamic-refine/no-single-sei/no-hevc-aq/no-svt/no-field/qp-adaptation-range=1.00/no-scenecut-aware-qpconformance-window-offsets/right=0/bottom=0
    Language : Japanese
    Default : Yes
    Forced : No
    Color range : Limited
    Color primaries : BT.709
    Transfer characteristics : BT.709
    Audio #1
    ID : 2
    Format : AAC LC
    Format/Info : Advanced Audio Codec Low Complexity
    Codec ID : A_AAC-2
    Duration : 24 min 13 s
    Bit rate : 192 kb/s
    Channel(s) : 2 channels
    Channel layout : L R
    Sampling rate : 48.0 kHz
    Frame rate : 46.875 FPS (1024 SPF)
    Compression mode : Lossy
    Stream size : 33.3 MiB (3%)
    Title : AniDub (Kiara_Laine FruKt Fuurou)
    Language : Russian
    Default : Yes
    Forced : No
    Audio #2
    ID : 3
    Format : AAC LC
    Format/Info : Advanced Audio Codec Low Complexity
    Codec ID : A_AAC-2
    Duration : 24 min 13 s
    Bit rate : 192 kb/s
    Channel(s) : 2 channels
    Channel layout : L R
    Sampling rate : 48.0 kHz
    Frame rate : 46.875 FPS (1024 SPF)
    Compression mode : Lossy
    Stream size : 33.3 MiB (3%)
    Title : AniLibria (Kona_chan Kari HectoR)
    Language : Russian
    Default : No
    Forced : No
    Audio #3
    ID : 4
    Format : AAC LC
    Format/Info : Advanced Audio Codec Low Complexity
    Codec ID : A_AAC-2
    Duration : 24 min 13 s
    Bit rate : 192 kb/s
    Channel(s) : 2 channels
    Channel layout : L R
    Sampling rate : 48.0 kHz
    Frame rate : 46.875 FPS (1024 SPF)
    Compression mode : Lossy
    Stream size : 33.3 MiB (3%)
    Title : AniFilm (MezIdA Soer)
    Language : Russian
    Default : No
    Forced : No
    Audio #4
    ID : 5
    Format : AAC LC
    Format/Info : Advanced Audio Codec Low Complexity
    Codec ID : A_AAC-2
    Duration : 24 min 13 s
    Bit rate : 192 kb/s
    Channel(s) : 2 channels
    Channel layout : L R
    Sampling rate : 48.0 kHz
    Frame rate : 46.875 FPS (1024 SPF)
    Compression mode : Lossy
    Stream size : 33.3 MiB (3%)
    Title : Anything Group (Milirina Sad_kit)
    Language : Russian
    Default : No
    Forced : No
    Audio #5
    ID : 6
    Format : FLAC
    Format/Info : Free Lossless Audio Codec
    Codec ID : A_FLAC
    Duration : 24 min 13 s
    Bit rate mode : Variable
    Bit rate : 1 402 kb/s
    Channel(s) : 2 channels
    Channel layout : L R
    Sampling rate : 48.0 kHz
    Frame rate : 11.719 FPS (4096 SPF)
    Bit depth : 24 bits
    Compression mode : Lossless
    Stream size : 243 MiB (19%)
    Title : Original
    Writing library : libFLAC 1.3.2 (UTC 2017-01-01)
    Language : Japanese
    Default : No
    Forced : No
    Text #1
    ID : 7
    Format : ASS
    Codec ID : S_TEXT/ASS
    Codec ID/Info : Advanced Sub Station Alpha
    Duration : 23 min 27 s
    Bit rate : 80 b/s
    Count of elements : 58
    Compression mode : Lossless
    Stream size : 13.9 KiB (0%)
    Title : Forced (YakuSub Studio)
    Language : Russian
    Default : Yes
    Forced : No
    Text #2
    ID : 8
    Format : ASS
    Codec ID : S_TEXT/ASS
    Codec ID/Info : Advanced Sub Station Alpha
    Duration : 23 min 42 s
    Bit rate : 217 b/s
    Count of elements : 371
    Compression mode : Lossless
    Stream size : 37.8 KiB (0%)
    Title : Full (YakuSub Studio)
    Language : Russian
    Default : No
    Forced : No
    Menu
    00: 00: 00.000 : : Avant
    00: 00: 43.043 : : OP
    00: 02: 13.007 : : Part A
    00: 12: 42.052 : : Part B
    00: 22: 26.053 : : ED
    00: 23: 56.017 : : Next

    Время раздачи: С 8: 00 по 18: 00 МСК (до появления первых 3-5 скачавших)
    Понравился релиз? Ставь Оценку и нажми Спасибо
    Это серьёзно меня мотивирует делать подобные релизы.
    Если всем сердцем любишь аниме - подключайся и оставайся на раздаче максимально долго! Мои Релизы
    За ретайминг звука и субтитров огромное спасибо DS2902
    Полный список ретаймов
    Рейтинг →
     (голосов: 1, оценка 4/5, голосовать можно 1 раз )

    Другие торренты по теме:

  • Akagami no Shirayukihime | Красноволосая Белоснежка [2015, TV, 1 из 12] HDTV 720p raw скачать через торрент бесплатно
  • Akagami no Shirayukihime OST (2015) [FLAC|Lossless] <OP+ED> скачать через торрент бесплатно
  • Akagami no Shirayukihime | Красноволосая Белоснежка [2015, TV, 12 из 24 эп.] BDrip 1080p Hi10P raw
  • Akagami no Shirayukihime | Красноволосая Белоснежка [2015, TV, 24 эп. + 1 OVA] BDrip 1080p Hi10P raw


    • Комментарии (0):

      Информация

      Информация

        Посетители, находящиеся в группе Гости, не могут оставлять комментарии в данной новости.