Подписывайся на наш канал в Telegram https://t.me/torrentok и получи доступ к торрентам без ограничений!
.
Авторизация | Регистрация
torrent123.club


Happy Sugar Life | Сладкая Жизнь [2018, TV, 12 ep] BDRip 1080p raw+rus торрент скачать бесплатно

Дата: 1-07-2020, 05:00 | .torrent скачали: 0

Happy Sugar Life | Сладкая Жизнь [2018, TV, 12 ep] BDRip 1080p raw+rusТип: TV
Жанр: Триллер, Драма, Романтика
Продолжительность: 12 Эпизодов по 23 Мин
Количество серий: 12 Эпизодов
Дата выпуска: c14.07.2018 по29.09.2018
Автор оригинала: Кагисора Томияки
Режиссер: Кусакава Кэйдзо
Производство: Ezόla, Япония

World-Art | AniDB | MyAnimelist | Shikimori

Описание

Сможете ли вы ответить на вопрос: Что такое настоящая любовь? У каждого найдётся свой ответ. Таким вопросом задавалась и Сато Мацудзака до встречи с Сио Кобэ. Теперь она знает, что любовь — высшее чувство, сладкое на вкус. Найдя своё счастье, Сато стремится сделать всё, чтобы сохранить счастливую жизнь: утром идёт в школу, днём ходит на подработку, а вечером остаётся наедине со своей возлюбленной.
Но не все согласны с её определением любви и стараются помешать Сато в её счастье. Ради того, чтобы эти дни продолжались, героиня пойдёт на всё... даже на убийство.
История сладкой жизни Сато и Сио только начинается!
Автор: KolEBAniaSenpai ©Shikimori
Видео Сэмпл: Скачать сЯндекс.Диск
Качество Видео: BDRip
Видео: AVC / x264 , 1920x1080, 23.976 fps, 14.7 Mb/s, 0.295 bpp 8-bit
Язык Озвучки: Японский и Русский
Озвучка: Многоголосая закадровая
Аудио №1: AAC2.0 , 48.0 kHz, 253 kb/s( Kansai Studio ) |Язык:
Аудио №2: AAC2.0 , 48.0 kHz, 192 kb/s( AniLibria ) |Язык:
Аудио №3: AAC2.0 , 48.0 kHz, 192 kb/s( AniDub ) |Язык:
Аудио №4: AAC2.0 , 48.0 kHz, 192 kb/s( AniMedia ) |Язык:
Аудио №5: AAC2.0 , 48.0 kHz, 192 kb/s( Shiza Project ) |Язык:
Аудио №6: FLAC2.0 , 48.0 kHz, 1 386 kb/s( Original ) |Язык:
Субтитры: Надписи, Полные( AniLibria/SovetRomantica )
Скриншоты:





01 . The Sugar Girl Eats Love (Сахарная девочка - пожирательница любви)
02 . Shio\'s Miniature Garden (В коробочке Шио)
03 . A Long Monochromatic Night (Долгая чёрно-белая ночь)
04 . The Sugar Girl Doesn\'t Notice (Сахарная девочка не замечает)
05 . The Taste of Crime and the Taste of Punishment (Вкус преступления, вкус наказания)
06 . We Revolve Around the Moon (Мы вращаемся вокруг Луны)
07 . What the Sugar Girl is Made Out Of (Из чего только сделана сахарная девочка)
08 . Apartment No.1208 (Квартира номер 1208)
09 . Dissolving Rain (Растворяющий дождь)
10 . A Proposal Under a Starry Sky (Предложение Под Звёздным Небом)
11 . An Eternal Moment with You (Целую вечность я готова провести с тобой)
12 . Happy Sugar Life (Сладкая Счастливая Жизнь)


General
Unique ID : 161340224375100598438322748933576487968 (0x7960FF372F86A3C528EF2B631C4E7420)
Complete name : J: АнимеСчастливая Сладкая Жизнь BDRip (2018)1. The Sugar Girl Eats Love (Сахарная девочка - пожирательница любви).mkv
Format : Matroska
Format version : Version 4
File size : 2.92 GiB
Duration : 24 min 28 s
Overall bit rate mode : Variable
Overall bit rate : 17.1 Mb/s
Encoded date : UTC 2020-06-28 18: 37: 49
Writing application : mkvmerge v43.0.0 (\'The Quartermaster\') 64-bit
Writing library : libebml v1.3.10 + libmatroska v1.5.2
Attachments : 11967.ttf/arial.ttf/Gabriola.ttf/11142.otf
Video
ID : 1
Format : AVC
Format/Info : Advanced Video Codec
Format profile : High@L4.1
Format settings : CABAC/4 Ref Frames
Format settings, CABAC : Yes
Format settings, Reference : 4 frames
Codec ID : V_MPEG4/ISO/AVC
Duration : 24 min 28 s
Bit rate : 14.7 Mb/s
Width : 1 920 pixels
Height : 1 080 pixels
Display aspect ratio : 16: 9
Frame rate mode : Constant
Frame rate : 23.976 (24000/1001) FPS
Color space : YUV
Chroma subsampling : 4: 2: 0
Bit depth : 8 bits
Scan type : Progressive
Bits/(Pixel*Frame) : 0.295
Stream size : 2.50 GiB (86%)
Writing library : x264 core 155 r2901 7d0ff22
Encoding settings : cabac=1/ref=4/deblock=1: -1: -1/analyse=0x3: 0x133/me=umh/subme=9/psy=1/psy_rd=0.85: 0.00/mixed_ref=1/me_range=32/chroma_me=1/trellis=2/8x8dct=1/cqm=0/deadzone=21, 11/fast_pskip=1/chroma_qp_offset=-4/threads=4/lookahead_threads=1/sliced_threads=0/nr=0/decimate=0/interlaced=0/bluray_compat=0/constrained_intra=0/bframes=5/b_pyramid=2/b_adapt=2/b_bias=0/direct=2/weightb=1/open_gop=0/weightp=2/keyint=230/keyint_min=23/scenecut=40/intra_refresh=0/rc_lookahead=50/rc=crf/mbtree=1/crf=15.0/qcomp=0.70/qpmin=10/qpmax=42/qpstep=4/vbv_maxrate=50000/vbv_bufsize=50000/crf_max=0.0/nal_hrd=none/filler=0/ip_ratio=1.40/aq=1: 0.90
Language : Japanese
Default : Yes
Forced : No
Audio #1
ID : 2
Format : AAC LC
Format/Info : Advanced Audio Codec Low Complexity
Codec ID : A_AAC-2
Duration : 24 min 28 s
Bit rate : 253 kb/s
Channel(s) : 2 channels
Channel layout : L R
Sampling rate : 48.0 kHz
Frame rate : 46.875 FPS (1024 SPF)
Compression mode : Lossy
Stream size : 44.4 MiB (1%)
Title : Kansai Studio MVO
Language : Russian
Default : Yes
Forced : No
Audio #2
ID : 3
Format : AAC LC
Format/Info : Advanced Audio Codec Low Complexity
Codec ID : A_AAC-2
Duration : 24 min 28 s
Bit rate : 192 kb/s
Channel(s) : 2 channels
Channel layout : L R
Sampling rate : 48.0 kHz
Frame rate : 46.875 FPS (1024 SPF)
Compression mode : Lossy
Stream size : 33.2 MiB (1%)
Title : AniLibria MyAska, Anzen, Kanade EU
Language : Russian
Default : No
Forced : No
Audio #3
ID : 4
Format : AAC LC
Format/Info : Advanced Audio Codec Low Complexity
Codec ID : A_AAC-2
Duration : 24 min 28 s
Bit rate : 192 kb/s
Channel(s) : 2 channels
Channel layout : L R
Sampling rate : 48.0 kHz
Frame rate : 46.875 FPS (1024 SPF)
Compression mode : Lossy
Stream size : 33.2 MiB (1%)
Title : AniDub Sergei Vasya, Oriko, Nika Lenina
Language : Russian
Default : No
Forced : No
Audio #4
ID : 5
Format : AAC LC
Format/Info : Advanced Audio Codec Low Complexity
Codec ID : A_AAC-2
Duration : 24 min 28 s
Bit rate : 192 kb/s
Channel(s) : 2 channels
Channel layout : L R
Sampling rate : 48.0 kHz
Frame rate : 46.875 FPS (1024 SPF)
Compression mode : Lossy
Stream size : 33.2 MiB (1%)
Title : AniMedia LeXar, MezIdA, Revi_Kim
Language : Russian
Default : No
Forced : No
Audio #5
ID : 6
Format : AAC LC
Format/Info : Advanced Audio Codec Low Complexity
Codec ID : A_AAC-2
Duration : 24 min 28 s
Bit rate : 192 kb/s
Channel(s) : 2 channels
Channel layout : L R
Sampling rate : 48.0 kHz
Frame rate : 46.875 FPS (1024 SPF)
Compression mode : Lossy
Stream size : 33.2 MiB (1%)
Title : Shiza Project nDrOiDze, Лизавета, Lianna
Language : Russian
Default : No
Forced : No
Audio #6
ID : 7
Format : FLAC
Format/Info : Free Lossless Audio Codec
Codec ID : A_FLAC
Duration : 24 min 28 s
Bit rate mode : Variable
Bit rate : 1 386 kb/s
Channel(s) : 2 channels
Channel layout : L R
Sampling rate : 48.0 kHz
Frame rate : 11.719 FPS (4096 SPF)
Bit depth : 24 bits
Compression mode : Lossless
Stream size : 243 MiB (8%)
Title : Original
Writing library : libFLAC 1.3.2 (UTC 2017-01-01)
Language : Japanese
Default : No
Forced : Yes
Text #1
ID : 8
Format : ASS
Codec ID : S_TEXT/ASS
Codec ID/Info : Advanced Sub Station Alpha
Duration : 23 min 5 s
Bit rate : 11 b/s
Count of elements : 20
Compression mode : Lossless
Stream size : 2.02 KiB (0%)
Title : Forced (AniLibria)
Language : Russian
Default : Yes
Forced : No
Text #2
ID : 9
Format : ASS
Codec ID : S_TEXT/ASS
Codec ID/Info : Advanced Sub Station Alpha
Duration : 24 min 13 s
Bit rate : 129 b/s
Count of elements : 322
Compression mode : Lossless
Stream size : 22.9 KiB (0%)
Title : Full SovetRomantica
Language : Russian
Default : No
Forced : No
Menu
00: 00: 00.000 : en: Chapter 01
00: 01: 03.981 : en: Chapter 02
00: 02: 34.029 : en: Chapter 03
00: 13: 56.044 : en: Chapter 04
00: 22: 42.027 : en: Chapter 05
00: 24: 11.992 : en: Chapter 06

Время раздачи: С 8: 00 по 18: 00 МСК (до появления первых 3-5 скачавших)
Понравился релиз? Ставь Оценку и нажми Спасибо
Это серьёзно меня мотивирует делать подобные релизы.
Если всем сердцем любишь аниме - подключайся и оставайся на раздаче максимально долго! Мои Релизы
За ретайминг звука и субтитров огромное спасибо DS2902
Полный список ретаймов
Рейтинг →
 (голосов: 1, оценка 5/5, голосовать можно 1 раз )

Другие торренты по теме:

  • Happy Sugar Life | Сладкая жизнь [2018, TV, 1 из 12 эп.] WEB-DL 720p raw
  • Happy Sugar Life | Сладкая жизнь [2018, TV, 6 из 12 эп.] BDrip 1080p raw


    • Комментарии (0):

      Информация

      Информация

        Посетители, находящиеся в группе Гости, не могут оставлять комментарии в данной новости.