Подписывайся на наш канал в Telegram https://t.me/torrentok и получи доступ к торрентам без ограничений!
.
Авторизация | Регистрация
torrent123.club


Падение ангела / Angel Has Fallen (2019) BDRip [H.264 / 1080p-LQ] [hand made 16:9] торрент скачать бесплатно

Дата: 20-11-2019, 05:01 | .torrent скачали: 10

Падение ангела / Angel Has Fallen (2019) BDRip [H.264 / 1080p-LQ] [hand made 16:9]Производство: США/Millennium Films, G-BASE, Campbell Grobman Films
Жанр: Боевик, Триллер
Режиссер: Рик Роман Во

Актеры
Джерард Батлер, Фредерик Шмидт, Морган Фримен, Дэнни Хьюстон, Рокки Уильямс, Пайпер Перабо, Джада Пинкетт Смит, Гарри Дитсон, Ник Нолти, Лэнс Реддик, Тим Блэйк Нельсон

Описание

На президента США совершено покушение, главный обвиняемый — верный ангел-хранитель главы государства и агент секретной службы Майк Бэннинг. Скрываясь от ФБР, он должен найти тех, кто его подставил, и спасти страну и ее лидера от смертельной угрозы.

Возраст: 16+ (зрителям, достигшим 16 лет)
Рейтинг MPAA: R (лицам до 17 лет обязательно присутствие взрослого)
Дата мировой премьеры: 20 августа 2019
Дата российской премьеры: 22 августа 2019, MEGOGO Distribution
Релиз от: SergeyAms
Продолжительность: 02: 00: 44
Качество видео: BDRip
Перевод: Дублированный (iTunes)
Субтитры: Английские (полные)
Видео: AVC/H.264, 1920x1080, ~5 Mbps
Аудио #1: AC3, 6 ch, 384 Kbps - Русский
Аудио #2: AC3, 6 ch, 448 Kbps - Английский
Unique ID : 217945585494928754951559867023767987241 (0xA3F6CAFDCC9B6E49B19A75F998E16429)
Complete name : D: TempNNMПадение Ангела.1080p.FS.mkv
Format : Matroska
Format version : Version 4/Version 2
File size : 4.92 GiB
Duration : 2h 1mn
Overall bit rate : 5 824 Kbps
Movie name : Падение ангела_Angel Has Fallen (2019)
Encoded date : UTC 2019-11-18 13: 23: 34
Writing application : mkvmerge v9.8.0 (\'Kuglblids\') 64bit
Writing library : libebml v1.3.4 + libmatroska v1.4.5
Video
ID : 1
Format : AVC
Format/Info : Advanced Video Codec
Format profile : High@L4.1
Format settings, CABAC : Yes
Format settings, ReFrames : 4 frames
Codec ID : V_MPEG4/ISO/AVC
Duration : 2h 1mn
Bit rate : 5 000 Kbps
Width : 1 920 pixels
Height : 1 080 pixels
Display aspect ratio : 16: 9
Frame rate mode : Constant
Frame rate : 23.976 fps
Color space : YUV
Chroma subsampling : 4: 2: 0
Bit depth : 8 bits
Scan type : Progressive
Bits/(Pixel*Frame) : 0.101
Stream size : 4.12 GiB (84%)
Writing library : x264 core 157 r2935 545de2f
Encoding settings : cabac=1/ref=4/deblock=1: -2: -2/analyse=0x3: 0x113/me=umh/subme=11/psy=1/psy_rd=1.05: 0.10/mixed_ref=1/me_range=32/chroma_me=1/trellis=2/8x8dct=1/cqm=0/deadzone=21, 11/fast_pskip=0/chroma_qp_offset=-3/threads=5/lookahead_threads=1/sliced_threads=0/nr=0/decimate=0/interlaced=0/bluray_compat=0/constrained_intra=0/bframes=8/b_pyramid=2/b_adapt=2/b_bias=0/direct=1/weightb=1/open_gop=0/weightp=2/keyint=240/keyint_min=24/scenecut=40/intra_refresh=0/rc=2pass/mbtree=0/bitrate=5000/ratetol=1.0/qcomp=0.70/qpmin=3/qpmax=69/qpstep=4/cplxblur=20.0/qblur=0.5/ip_ratio=1.40/pb_ratio=1.30/aq=2: 1.00
Default : Yes
Forced : No
Audio #1
ID : 2
Format : AC-3
Format/Info : Audio Coding 3
Mode extension : CM (complete main)
Format settings, Endianness : Big
Codec ID : A_AC3
Duration : 2h 1mn
Bit rate mode : Constant
Bit rate : 384 Kbps
Channel(s) : 6 channels
Channel positions : Front: L C R, Side: L R, LFE
Sampling rate : 48.0 KHz
Bit depth : 16 bits
Compression mode : Lossy
Stream size : 332 MiB (7%)
Language : Russian
Default : Yes
Forced : No
Audio #2
ID : 3
Format : AC-3
Format/Info : Audio Coding 3
Mode extension : CM (complete main)
Format settings, Endianness : Big
Codec ID : A_AC3
Duration : 2h 1mn
Bit rate mode : Constant
Bit rate : 448 Kbps
Channel(s) : 6 channels
Channel positions : Front: L C R, Side: L R, LFE
Sampling rate : 48.0 KHz
Bit depth : 16 bits
Compression mode : Lossy
Stream size : 388 MiB (8%)
Language : English
Default : No
Forced : No
Text
ID : 4
Format : UTF-8
Codec ID : S_TEXT/UTF8
Codec ID/Info : UTF-8 Plain Text
Language : English
Default : No
Forced : No
Menu
00: 00: 00.000 : en: Studio Logo
00: 00: 38.000 : en: Scene 2
00: 01: 27.000 : en: Title Sequence
00: 01: 32.000 : en: Scene 4
00: 06: 49.000 : en: Scene 5
00: 08: 21.000 : en: Scene 6
00: 09: 07.000 : en: Scene 7
00: 11: 33.000 : en: Scene 8
00: 16: 00.000 : en: Scene 9
00: 23: 14.000 : en: Scene 10
00: 28: 36.000 : en: Scene 11
00: 32: 28.000 : en: Scene 12
00: 39: 40.000 : en: Scene 13
00: 41: 01.000 : en: Scene 14
00: 42: 07.000 : en: Scene 15
00: 50: 56.000 : en: Scene 16
00: 53: 04.000 : en: Scene 17
00: 57: 43.000 : en: Scene 18
00: 59: 23.000 : en: Scene 19
01: 03: 06.000 : en: Scene 20
01: 06: 10.000 : en: Scene 21
01: 10: 46.000 : en: Scene 22
01: 16: 26.000 : en: Scene 23
01: 19: 23.000 : en: Scene 24
01: 24: 11.000 : en: Scene 25
01: 30: 10.000 : en: Scene 26
01: 39: 41.000 : en: Scene 27
01: 44: 27.000 : en: Scene 28
01: 50: 53.000 : en: End Credits

Скриншоты для ознакомления



Все одноименные релизы в Клубе
Время раздачи: 24/7 (до появления первых 3-5 скачавших)
Рейтинг →
 (голосов: 1, оценка 4/5, голосовать можно 1 раз )

Другие торренты по теме:

  • Падение ангела / Angel Has Fallen (2019) CAMRip [H.264 / 720p-LQ] [AD]
  • Падение ангела / Angel Has Fallen (2019) WEB-DLRip [H.265] [10-bit]
  • Падение ангела / Angel Has Fallen (2019) WEB-DLRip [H.264]
  • Падение ангела / Angel Has Fallen (2019) WEB-DLRip
  • Падение ангела / Angel Has Fallen (2019) WEB-DL [H.264 / 1080p-LQ]
  • Падение ангела / Angel Has Fallen (2019) WEBRip [H.264 / 720p-LQ]
  • Падение ангела / Angel Has Fallen (2019) WEB-DLRip [H.265 / 720p] [10-bit] [PR]
  • Падение ангела / Angel Has Fallen (2019) WEB-DL [H.264 / 1080p]


    • Комментарии (0):

      Информация

      Информация

        Посетители, находящиеся в группе Гости, не могут оставлять комментарии в данной новости.