Подписывайся на наш канал в Telegram https://t.me/torrentok и получи доступ к торрентам без ограничений!
.
Авторизация | Регистрация
torrent123.club


Mirror / Время - зеркало души (2016) Screener [AVI] торрент скачать бесплатно

Дата: 24-11-2019, 05:00 | .torrent скачали: 4

Mirror / Время - зеркало души (2016) Screener [AVI]Жанр: Короткометражный, Мелодрама, Музыкальный, Анимация
Режиссер: Алексей

Описание

Признание в любви. Стихи, монтаж и аранжировка мои, картинки и музыка заимствованы из сети Интернета. Мой первый опыт, прошу не судить строго.
Возраст: 16+ (зрителям, достигшим 16 лет)
Рейтинг MPAA: PG-13 (детям до 13 лет просмотр нежелателен)
Продолжительность: 3.56 мин
Качество видео: Screener
Субтитры: рус
Видео: H264, 1280х738; 25 fps; ~5144 Kbps
Аудио: AC-3, 128 KbpsОбщее
Полное имя : G: mirror.avi
Формат : AVI
Формат/Информация : Audio Video Interleave
Размер файла : 145 Мбайт
Продолжительность : 3 м. 56 с.
Общий поток : 5144 Кбит/сек
Видео
Идентификатор : 0
Формат : AVC
Формат/Информация : Advanced Video Codec
Профиль формата : Main@L4.1
Параметр CABAC формата : Да
Параметр ReFrames формата : 1 кадр
Параметр GOP формата : M=1, N=25
Идентификатор кодека : H264
Продолжительность : 3 м. 56 с.
Битрейт : 5000 Кбит/сек
Ширина : 1280 пикселей
Высота : 720 пикселей
Соотношение сторон : 16: 9
Режим частоты кадров : Переменный
Частота кадров : 25, 000 кадров/сек
Цветовое пространство : YUV
Субдискретизация насыщенности : 4: 2: 0
Битовая глубина : 8 бит
Тип развёртки : Прогрессивная
Бит/(Пиксели*Кадры) : 0.217
Размер потока : 141 Мбайт (97%)
Библиотека кодирования : x264 core 132
Настройки программы : cabac=1/ref=1/deblock=1: 0: 0/analyse=0x1: 0x111/me=hex/subme=2/psy=1/psy_rd=1.00: 0.00/mixed_ref=0/me_range=16/chroma_me=1/trellis=1/8x8dct=0/cqm=0/deadzone=21, 11/fast_pskip=1/chroma_qp_offset=0/threads=4/lookahead_threads=1/sliced_threads=0/nr=0/decimate=1/interlaced=0/bluray_compat=0/constrained_intra=0/bframes=0/weightp=1/keyint=25/keyint_min=13/scenecut=40/intra_refresh=0/rc=abr/mbtree=0/bitrate=5000/ratetol=0.1/qcomp=0.60/qpmin=1/qpmax=35/qpstep=2/ip_ratio=1.40/aq=1: 1.00
Аудио
Идентификатор : 1
Формат : AC-3
Формат/Информация : Audio Coding 3
Расширение режима : CM (complete main)
Параметр Endianness формата : Big
Идентификатор кодека : 2000
Продолжительность : 3 м. 56 с.
Вид битрейта : Постоянный
Битрейт : 128 Кбит/сек
Каналы : 2 канала
Расположение каналов : Front: L R
Частота : 44, 1 КГц
Битовая глубина : 16 бит
Метод сжатия : С потерями
Размер потока : 3, 62 Мбайт (2%)
Выравнивание : Соединение по промежуткам
Продолжительность промежутка : 35 мс. (0, 87 видеокадр)
Время предзагрузки промежутка : 174 мс.
Скриншоты для ознакомления




Время раздачи: 24/7 (до появления первых 3-5 скачавших)
Рейтинг →
 (голосов: 1, оценка 3/5, голосовать можно 1 раз )

Другие торренты по теме:

  • Mirror - Mirror (2008) [MP3|320 кб / с]<Synthpop, Electronic> скачать через торрент бесплатно
  • Проекты - Проект ProShow Producer - Mirror, mirror on the wall [PSH] скачать через торрент бесплатно
  • Mirror - Mirror (2015) [FLAC|Lossless|image + .cue] <Heavy Metal> скачать через торрент бесплатно
  • По ту сторону зеркала / The Other Side of the Mirror / Alice The Darker Side Of The Mirror (2016) BDRip [H.264 / 1080p]
  • По ту сторону зеркала / The Other Side of the Mirror / Alice The Darker Side Of The Mirror (2016) HDRip
  • The Secret Light - Mirror Mirror (2017) [MP3|V0 (192-320 Kbps)] <Synthpop,Darkwave>
  • Белоснежка: Месть гномов / Mirror Mirror (2012) BDRip [H.264 / 1080p]
  • Castlevania: Lords of Shadow - Mirror of Fate HD (2014) [Ru / En] (1.0.684575 Upd2) Repack R.G. Revenants


    • Комментарии (0):

      Информация

      Информация

        Посетители, находящиеся в группе Гости, не могут оставлять комментарии в данной новости.