Подписывайся на наш канал в Telegram https://t.me/torrentok и получи доступ к торрентам без ограничений!
.
Авторизация | Регистрация
torrent123.club


Мандалорец / The Mandalorian (2019) WEB-DLRip [H.264 / 1080p-LQ] торрент скачать бесплатно

Дата: 31-12-2019, 05:00 | .torrent скачали: 3

Мандалорец / The Mandalorian (2019) WEB-DLRip [H.264 / 1080p-LQ]Производство: США/Lucasfilm, Walt Disney Studios
Жанр: фантастика, боевик, приключения
Режиссер: Дебора Чоу, Рик Фамуйива, Дэйв Филони

Актеры
Педро Паскаль, Карл Уэзерс, Джина Карано, Вернер Херцог, Ник Нолти, Тайка Вайтити, Эмили Суоллоу, Мисти Росас, Рио Хекфорд, Айдан Бертола

Описание

Американский телесериал в жанре космический вестерн, являющийся составной частью вселенной Звёздных войн. Премьера сериала состоялась в США 12 ноября 2019 года на стрим-сервисе Disney+, который приступил к работе в тот же день. Действие сериала разворачивается пять лет спустя после событий фильма Возвращение джедая, а главным героем стал охотник за головами из клана мандалорцев, обитающий на окраине Новой республики.

Дата мировой премьеры: 12.11.2019
Продолжительность: 04: 36: 33
Качество видео: WEB-DLRip
Перевод: Многоголосый профессиональный (AlexFilm)
Субтитры: русские (полные), английские (полные)
Видео: AVC/H.264, 1920х804, ~5000 Kbps
Аудио #1: AC3, 6 ch, 384 kbps - русский (MVO AlexFilm)
Аудио #2: AC3, 6 ch, 640 kbps - английский
x264 info: frame I: 3377 Avg QP: 14.66 size: 133223
x264 info: frame P: 117563 Avg QP: 17.47 size: 47108
x264 info: frame B: 276909 Avg QP: 19.37 size: 15824
Unique ID : 98643917031641638039241125836219675530 (0x4A36209AF22F5E9DB9B4FBE07206F38A)
Complete name : D: TempNNMМандалорец 1 сезон любимого сериала.1080p.mkv
Format : Matroska
Format version : Version 4/Version 2
File size : 11.6 GiB
Duration : 4h 36mn
Overall bit rate : 6 029 Kbps
Movie name : The Mandalorian
Writing library : Lavf57.71.100
Video
ID : 1
Format : AVC
Format/Info : Advanced Video Codec
Format profile : High@L4.1
Format settings, CABAC : Yes
Format settings, ReFrames : 5 frames
Codec ID : V_MPEG4/ISO/AVC
Duration : 4h 36mn
Bit rate : 5 000 Kbps
Width : 1 920 pixels
Height : 804 pixels
Display aspect ratio : 2.40: 1
Frame rate mode : Constant
Frame rate : 23.976 fps
Color space : YUV
Chroma subsampling : 4: 2: 0
Bit depth : 8 bits
Scan type : Progressive
Bits/(Pixel*Frame) : 0.135
Stream size : 9.44 GiB (81%)
Writing library : x264 core 157 r2935 545de2f
Encoding settings : cabac=1/ref=5/deblock=1: -2: -2/analyse=0x3: 0x113/me=umh/subme=10/psy=1/psy_rd=1.05: 0.10/mixed_ref=1/me_range=24/chroma_me=1/trellis=2/8x8dct=1/cqm=0/deadzone=21, 11/fast_pskip=0/chroma_qp_offset=-3/threads=5/lookahead_threads=1/sliced_threads=0/nr=0/decimate=0/interlaced=0/bluray_compat=0/constrained_intra=0/bframes=8/b_pyramid=2/b_adapt=2/b_bias=0/direct=1/weightb=1/open_gop=0/weightp=2/keyint=240/keyint_min=24/scenecut=40/intra_refresh=0/rc=2pass/mbtree=0/bitrate=5000/ratetol=1.0/qcomp=0.70/qpmin=3/qpmax=69/qpstep=4/cplxblur=20.0/qblur=0.5/ip_ratio=1.40/pb_ratio=1.30/aq=2: 1.00
Language : English
Default : Yes
Forced : No
Audio #1
ID : 2
Format : AC-3
Format/Info : Audio Coding 3
Mode extension : CM (complete main)
Format settings, Endianness : Big
Codec ID : A_AC3
Duration : 4h 36mn
Bit rate mode : Constant
Bit rate : 384 Kbps
Channel(s) : 6 channels
Channel positions : Front: L C R, Side: L R, LFE
Sampling rate : 48.0 KHz
Bit depth : 16 bits
Compression mode : Lossy
Stream size : 760 MiB (6%)
Title : AlexFilm
Language : Russian
Default : Yes
Forced : No
Audio #2
ID : 3
Format : AC-3
Format/Info : Audio Coding 3
Mode extension : CM (complete main)
Format settings, Endianness : Big
Codec ID : A_AC3
Duration : 4h 36mn
Bit rate mode : Constant
Bit rate : 640 Kbps
Channel(s) : 6 channels
Channel positions : Front: L C R, Side: L R, LFE
Sampling rate : 48.0 KHz
Bit depth : 16 bits
Compression mode : Lossy
Stream size : 1.24 GiB (11%)
Language : English
Default : No
Forced : No
Text #1
ID : 4
Format : UTF-8
Codec ID : S_TEXT/UTF8
Codec ID/Info : UTF-8 Plain Text
Title : FOCS
Language : Russian
Default : Yes
Forced : No
Text #2
ID : 5
Format : UTF-8
Codec ID : S_TEXT/UTF8
Codec ID/Info : UTF-8 Plain Text
Title : English
Language : English
Default : No
Forced : No

Рейтинг →
 (голосов: 1, оценка 5/5, голосовать можно 1 раз )

Другие торренты по теме:

  • Мандалорец / Mandalorian (2019) WEBRip [H.264 / 720p-LQ] (сезон 1, серии 1-2 из 8) (обновляемая) finargot
  • Мандалорец / Mandalorian (2019) WEBRip [H.264 / 1080p] (сезон 1, серии 1-3 из 8) finargot (обновляемая)
  • Мандалорец / Mandalorian (2019) WEB-DL [H.264 / 1080p] (сезон 1 серии 1-4 из 8) Flarrow Films (обновляемая)
  • Мандалорец / The Mandalorian (2019) WEBRip [H.264 / 1080p-LQ] (сезон 1, серия 1 из 8) (обновляемая) HDRezka Studio
  • Мандалорец / The Mandalorian (2019) WEBRip [H.264 / 1080p-LQ] (сезон 1, серия 1 из 8) (обновляемая) LakeFilms [AD]
  • Мандалорец / The Mandalorian (2019) WEBRip (сезон 1, серии 1-2 из 8) (обновляемая) HDRezka Studio
  • Мандалорец / The Mandalorian (2019) WEB-DLRip (сезон 1, серия 1 из 8) Lostfilm (обновляемая)
  • Мандалорец / The Mandalorian (2019) WEB-DLRip [H.264 / 720p-LQ] (сезон 1, серии 1 из 8) AMS (обновляемая) [AD] [PR]


    • Комментарии (0):

      Информация

      Информация

        Посетители, находящиеся в группе Гости, не могут оставлять комментарии в данной новости.