Подписывайся на наш канал в Telegram https://t.me/torrentok и получи доступ к торрентам без ограничений!
.
Авторизация | Регистрация
torrent123.club


Окончательный счёт / Final Score (2018) BDRip [H.264 / 1080p-LQ] [hand made 16:9] торрент скачать бесплатно

Дата: 11-01-2020, 05:01 | .torrent скачали: 1

Окончательный счёт / Final Score (2018) BDRip [H.264 / 1080p-LQ] [hand made 16:9]Производство: США/Signature Films, Drybake Productions
Жанр: боевик, триллер, драма
Режиссер: Скотт Манн

Актеры
Дэйв Батиста, Пирс Броснан, Рэй Стивенсон, Мартин Форд, Ральф Браун, Брюс Лок, Люси Гаскелл, Аарон МакКаскер, Амит Шах, Хелена Холмс

Описание

История о бывшем солдате, которому предстоит спасти многотысячный стадион зрителей, собравшихся на футбольном матче и взятых в заложники вооружёнными бандитами. Герою придётся вспомнить своей военный опыт, чтобы обезвредить преступников и исполнить долг перед павшим товарищем, чья дочь также оказалась среди возможных жертв.

Рейтинг MPAA: R (лицам до 17 лет обязательно присутствие взрослого)
Релиз от: SergeyAms
Продолжительность: 01: 44: 44
Качество видео: BDRip
Перевод: Дублированный, многоголосый закадровый
Субтитры: английские (полные)
Видео: AVC/H.264, 1920x1080, ~5000 Kbps
Аудио #1: AC3, 6 ch, 384 kbps - русский (DUB, iTunes)
Аудио #2: AC3, 2 ch, 192 kbps - русский (MVO, HDRezka Studio)
Аудио #3: AC3, 6 ch, 640 kbps - английский
x264 info: frame I: 1099 Avg QP: 17.63 size: 126712
x264 info: frame P: 45159 Avg QP: 18.53 size: 47390
x264 info: frame B: 104417 Avg QP: 20.15 size: 15746
Unique ID : 216516223728095949857210298633973699468 (0xA2E38203EC42CB0DB4DF9D8432A4938C)
Complete name : D: TempNNMFinalScore.2018.1080p.FS.mkv
Format : Matroska
Format version : Version 4/Version 2
File size : 4.54 GiB
Duration : 1h 44mn
Overall bit rate : 6 211 Kbps
Encoded date : UTC 2020-01-10 20: 45: 03
Writing application : mkvmerge v9.8.0 (\'Kuglblids\') 64bit
Writing library : libebml v1.3.4 + libmatroska v1.4.5
Video
ID : 1
Format : AVC
Format/Info : Advanced Video Codec
Format profile : High@L4.1
Format settings, CABAC : Yes
Format settings, ReFrames : 4 frames
Codec ID : V_MPEG4/ISO/AVC
Duration : 1h 44mn
Bit rate : 5 000 Kbps
Width : 1 920 pixels
Height : 1 080 pixels
Display aspect ratio : 16: 9
Frame rate mode : Constant
Frame rate : 23.976 fps
Color space : YUV
Chroma subsampling : 4: 2: 0
Bit depth : 8 bits
Scan type : Progressive
Bits/(Pixel*Frame) : 0.101
Stream size : 3.56 GiB (78%)
Writing library : x264 core 157 r2935 545de2f
Encoding settings : cabac=1/ref=4/deblock=1: -2: -2/analyse=0x3: 0x113/me=umh/subme=10/psy=1/psy_rd=1.05: 0.10/mixed_ref=1/me_range=24/chroma_me=0/trellis=2/8x8dct=1/cqm=0/deadzone=21, 11/fast_pskip=0/chroma_qp_offset=-3/threads=5/lookahead_threads=1/sliced_threads=0/nr=0/decimate=0/interlaced=0/bluray_compat=0/constrained_intra=0/bframes=6/b_pyramid=2/b_adapt=2/b_bias=0/direct=1/weightb=1/open_gop=0/weightp=2/keyint=240/keyint_min=24/scenecut=40/intra_refresh=0/rc=2pass/mbtree=0/bitrate=5000/ratetol=1.0/qcomp=0.70/qpmin=3/qpmax=69/qpstep=4/cplxblur=20.0/qblur=0.5/ip_ratio=1.40/pb_ratio=1.30/aq=2: 1.00
Language : English
Default : Yes
Forced : No
Audio #1
ID : 2
Format : AC-3
Format/Info : Audio Coding 3
Mode extension : CM (complete main)
Format settings, Endianness : Big
Codec ID : A_AC3
Duration : 1h 44mn
Bit rate mode : Constant
Bit rate : 384 Kbps
Channel(s) : 6 channels
Channel positions : Front: L C R, Side: L R, LFE
Sampling rate : 48.0 KHz
Bit depth : 16 bits
Compression mode : Lossy
Stream size : 288 MiB (6%)
Language : Russian
Default : Yes
Forced : No
Audio #2
ID : 3
Format : AC-3
Format/Info : Audio Coding 3
Mode extension : CM (complete main)
Format settings, Endianness : Big
Codec ID : A_AC3
Duration : 1h 44mn
Bit rate mode : Constant
Bit rate : 192 Kbps
Channel(s) : 2 channels
Channel positions : Front: L R
Sampling rate : 48.0 KHz
Bit depth : 16 bits
Compression mode : Lossy
Stream size : 144 MiB (3%)
Language : Russian
Default : No
Forced : No
Audio #3
ID : 4
Format : AC-3
Format/Info : Audio Coding 3
Mode extension : CM (complete main)
Format settings, Endianness : Big
Codec ID : A_AC3
Duration : 1h 44mn
Bit rate mode : Constant
Bit rate : 640 Kbps
Channel(s) : 6 channels
Channel positions : Front: L C R, Side: L R, LFE
Sampling rate : 48.0 KHz
Bit depth : 16 bits
Compression mode : Lossy
Stream size : 479 MiB (10%)
Language : English
Default : No
Forced : No
Text
ID : 5
Format : UTF-8
Codec ID : S_TEXT/UTF8
Codec ID/Info : UTF-8 Plain Text
Language : English
Default : Yes
Forced : No

Скриншоты для ознакомления



Все одноименные релизы в Клубе
Время раздачи: 24/7 (до появления первых 3-5 скачавших)
Рейтинг →
 (голосов: 1, оценка 5/5, голосовать можно 1 раз )

Другие торренты по теме:

  • Окончательный счёт / Final Score (2018) WEB-DL [1080p] Amazon ATV
  • Окончательный счёт / Final Score (2018) WEB-DL [H.264 / 1080p-LQ] [MVO]
  • Окончательный счёт / Final Score (2018) WEB-DLRip [MVO]
  • Окончательный счёт / Final Score (2018) BDRip [H.264 / 1080p] [MVO] [PR]
  • Окончательный счёт / Final Score (2018) BDRemux [H.264 / 1080p] [EN / EN, Sp Sub]
  • Окончательный счёт / Final Score (2018) BDRip [H.264 / 720p] [MVO]
  • Окончательный счёт / Final Score (2018) BDRemux [H.264 / 1080p]
  • Окончательный счёт / Final Score (2018) BDRip [H.264 / 1080p]


    • Комментарии (0):

      Информация

      Информация

        Посетители, находящиеся в группе Гости, не могут оставлять комментарии в данной новости.