Подписывайся на наш канал в Telegram https://t.me/torrentok и получи доступ к торрентам без ограничений!
.
Авторизация | Регистрация
torrent123.club


Перекрёсток: раз, два, три - лови! / One Two Jaga (2018) WEB-DLRip [DVO] [AD] торрент скачать бесплатно

Дата: 30-01-2020, 05:00 | .torrent скачали: 2

Перекрёсток: раз, два, три - лови! / One Two Jaga (2018) WEB-DLRip [DVO] [AD]Производство: Малайзия/KL POST Sdn Bhd, Jazzy Pictures
Жанр: драма, криминал
Режиссер: Намрон

Актеры
Захирил Адзим, Арио Баю, Росдин Субо, Асмара Эбигейл, Амерул Аффенди, Чю Кин Ва, Тимоти Мабалот, Иедил Путра, Алонг Айзенди, Азман Хассан

Описание

В трущобах Малайзии, полных нелегальных мигрантов из Индонезии, круглый год преступления и коррупция. Расстояние от сумы до тюрьмы — всего один звонок. Здесь все должны с самого детства решать, за кого они будут играть — за копов или за бандитов, но в итоге неизвестно, есть ли между ними разница.

Продолжительность: 01: 23: 06
Качество видео: WEB-DLRip
Перевод: Двуголосый любительский (КОЛОБОК)
Субтитры: отсутствуют
Реклама: присутствуют аудио, видео и текстовые вставки рекламы
Видео: Xvid, 720x304, ~1962 Kbps
Аудио: AC3, 2 ch, 384 Kbps - Русский (DVO)
General
Complete name : /media/win/TORRENT/UPLOAD_TORRENTS/One.Two.Jaga.2018.Pk.WEB-DLRip.14OOMB.avi
Format : AVI
Format/Info : Audio Video Interleave
File size : 1.37 GiB
Duration : 1 h 23 min
Overall bit rate : 2 355 kb/s
Writing application : VirtualDubMod 1.10.5ru (build 2550/release)
Writing library : VirtualDubMod build 2550/release
Video
ID : 0
Format : MPEG-4 Visual
Format profile : Advanced Simple@L5
Format settings : BVOP2/Custom Matrix
Format settings, BVOP : 2
Format settings, QPel : No
Format settings, GMC : No warppoints
Format settings, Matrix : Custom
Codec ID : XVID
Codec ID/Hint : XviD
Duration : 1 h 23 min
Bit rate : 1 962 kb/s
Width : 720 pixels
Height : 304 pixels
Display aspect ratio : 2.35: 1
Frame rate : 23.976 (24000/1001) FPS
Color space : YUV
Chroma subsampling : 4: 2: 0
Bit depth : 8 bits
Scan type : Progressive
Compression mode : Lossy
Bits/(Pixel*Frame) : 0.374
Stream size : 1.14 GiB (83%)
Writing library : XviD 1.2.1 (UTC 2008-12-04)
Audio
ID : 1
Format : AC-3
Format/Info : Audio Coding 3
Commercial name : Dolby Digital
Codec ID : 2000
Duration : 1 h 23 min
Bit rate mode : Constant
Bit rate : 384 kb/s
Channel(s) : 2 channels
Channel layout : L R
Sampling rate : 48.0 kHz
Frame rate : 31.250 FPS (1536 SPF)
Compression mode : Lossy
Stream size : 228 MiB (16%)
Alignment : Split across interleaves
Interleave, duration : 42 ms (1.00 video frame)
Interleave, preload duration : 500 ms
Service kind : Complete Main
Награды и номинации:
Five Flavours Asian Film Festival 2018
Nominee
New Asian Cinema Best Film
Namron
Malaysian Film Festival 2019
Winner
Best Actor Rosdeen Suboh
Winner
Best Director Namron
Winner
Best Film
Pixel Play Entertainment
Winner
Best Original Story Pitt Hanif
Muhammad Syafiq
Namron
Winner
Best Poster Jazzy Pictures
Winner
Best Screenplay Amri Rohayat
Ayam Fared
Namron
Nominee
Best Child Actor/Actress Izuan Fitri
Nominee
Best Cinematography Helmi Yusof
Nominee
Best Editing Razaisyam Rashid
Nominee
Best Supporting Actor Amerul Affendi
Скриншоты для ознакомления



Все одноименные релизы в Клубе
Время раздачи: с 08: 00 до 23: 00 (до появления первых 3-5 скачавших)
Рейтинг →
 (голосов: 1, оценка 4/5, голосовать можно 1 раз )

Другие торренты по теме:

  • Весёлые Ребята - Перекрёсток Судьбы (2015) [DSD2.0|5,64MHz / 1bit|image+.cue|Tape-Rip] <Pop>
  • Константин Муравьёв | Перекрёсток (2018) [FB2]
  • Константин Муравьёв | Перекрёсток (2019) [MP3]


    • Комментарии (0):

      Информация

      Информация

        Посетители, находящиеся в группе Гости, не могут оставлять комментарии в данной новости.