Подписывайся на наш канал в Telegram https://t.me/torrentok и получи доступ к торрентам без ограничений!
.
Авторизация | Регистрация
torrent123.club


Наживка / Bait (2019) WEB-DLRip [MVO] [AD] торрент скачать бесплатно

Дата: 30-01-2020, 05:00 | .torrent скачали: 2

Наживка / Bait (2019) WEB-DLRip [MVO] [AD]Производство: Великобритания/Early Day Films
Жанр: Драма
Режиссер: Марк Дженкин

Актеры
Эдвард Роу, Мэри Вудвайн, Саймон Шепард, Джиллз Кинг, Хлоя Индин, Айзек Вудвайн, Джордж Эллери, Жован Джейкобс, Stacey Guthrie, Тристан Старрок

Описание

Мартин и Стивен Уорд — братья, чья семья занимается рыбной ловлей у штормовых берегов Корнуолла. Но времена меняются, вековой уклад жизни под угрозой — вместе с рыбацким промыслом: Мартин из последних сил стремится сохранить его, тогда как Стивен выбрал лёгкий путь — обслуживать туристов, используя лодку покойного отца для экскурсий. Продажа семейного дома паре чужаков обостряет конфликт.

Возраст: 16+ (зрителям, достигшим 16 лет)
Дата мировой премьеры: 9 февраля 2019
Релиз от: Синема УС
Продолжительность: 01: 29: 58
Качество видео: WEB-DLRip
Перевод: Многоголосый любительский (Синема УС)
Субтитры: отсутствуют
Реклама: аудио, видео и текстовые вставки рекламы
Видео: Xvid, 720x544, ~1780 Kbps
Аудио: AC3, 2 ch, 384 Kbps - Русский (MVO)
General
Complete name : /media/win/TORRENT/UPLOAD_TORRENTS/Bait.2019.P.WEB-DLRip.14OOMB.avi
Format : AVI
Format/Info : Audio Video Interleave
File size : 1.37 GiB
Duration : 1 h 29 min
Overall bit rate : 2 174 kb/s
Writing application : VirtualDubMod 1.5.10.3 |www.virtualdub-fr.org|| (build 2550/release)
Writing library : VirtualDubMod build 2550/release
Video
ID : 0
Format : MPEG-4 Visual
Format profile : Advanced Simple@L5
Format settings : BVOP2/Custom Matrix
Format settings, BVOP : 2
Format settings, QPel : No
Format settings, GMC : No warppoints
Format settings, Matrix : Custom
Codec ID : XVID
Codec ID/Hint : XviD
Duration : 1 h 29 min
Bit rate : 1 781 kb/s
Width : 720 pixels
Height : 544 pixels
Display aspect ratio : 4: 3
Frame rate : 23.976 (24000/1001) FPS
Color space : YUV
Chroma subsampling : 4: 2: 0
Bit depth : 8 bits
Scan type : Progressive
Compression mode : Lossy
Bits/(Pixel*Frame) : 0.190
Stream size : 1.12 GiB (82%)
Writing library : XviD 1.2.1 (UTC 2008-12-04)
Audio
ID : 1
Format : AC-3
Format/Info : Audio Coding 3
Commercial name : Dolby Digital
Codec ID : 2000
Duration : 1 h 29 min
Bit rate mode : Constant
Bit rate : 384 kb/s
Channel(s) : 2 channels
Channel layout : L R
Sampling rate : 48.0 kHz
Frame rate : 31.250 FPS (1536 SPF)
Compression mode : Lossy
Stream size : 247 MiB (18%)
Alignment : Split across interleaves
Interleave, duration : 42 ms (1.00 video frame)
Interleave, preload duration : 500 ms
Service kind : Complete Main

Рейтинг →
 (голосов: 1, оценка 4/5, голосовать можно 1 раз )

Другие торренты по теме:

  • Сергей Зверев | Наживка для резидента (2017) [FB2]
  • Наживка для ангела (2017) SATRip (сезон 1, серии 1-6 из 16) (обновляемая) [AD]
  • Наживка для ангела (2017) HDTVRip (сезон 1, серии 1-16 из 16)
  • Наживка для ангела (2017) WEB-DL [H.264 / 1080p-LQ] (сезон 1, серии 1-16 из 16)


    • Комментарии (0):

      Информация

      Информация

        Посетители, находящиеся в группе Гости, не могут оставлять комментарии в данной новости.