Подписывайся на наш канал в Telegram https://t.me/torrentok и получи доступ к торрентам без ограничений!
.
Авторизация | Регистрация
torrent123.club
Торрент трекер | Скачать торрент | Скачать Через Торрент | Скачать торрент бесплатно | Скачать торрент без регистрации Другое торрент скачать Сергей Троицкий - Паук (Коррозия Металла) Концерт в клубе Ионотека (07.01.2020) CamRip [H.264] торрент скачать бесплатно


    Сергей Троицкий - Паук (Коррозия Металла) Концерт в клубе Ионотека (07.01.2020) CamRip [H.264] торрент скачать бесплатно

    Дата: 30-01-2020, 05:00 | .torrent скачали: 2

    Сергей Троицкий - Паук (Коррозия Металла) Концерт в клубе Ионотека (07.01.2020) CamRip [H.264]Жанр: Кроссовер-Трэш
    Режиссер: Сергей Троицкий

    Актеры
    Сергей Троицкий
    Треклист:
    00: 00 - вступление
    03: 13 - Дико в кайф (Вика Астрелина)
    06: 37 - Марихуана (Вика Астрелина)
    10: 10 - телега от Паука
    12: 15 - Всё что было (романс) (Вика Астрелина)15: 45 - телега от Паука
    19: 30 - Идёт 2 рота (Фёдор Волков)
    24: 15 - КОРРОЗИЯ МЕТАЛЛА
    24: 35 - Химкинский цирюльник
    27: 35 - Отлична, отлична
    31: 00 - телега от Паука
    32: 12 - СПИД
    36: 32 - Танк Вампира
    39: 55 - Kill To Сунарефа
    43: 12 - Фантом
    50: 04 - Слишком поздно
    55: 55 - Едет МОБ
    01: 00: 30 - Чад кутежа
    01: 06: 00 - Весёлый Роджер
    01: 10: 30 - А.С.А.В.
    01: 14: 51 - Голая Марина
    01: 18: 50 - Дьявол здесь!
    01: 24: 24 - Russian Vodka
    01: 28: 35 - Ритуал сожжения трупов
    01: 33: 06 - Чёрный Террор
    01: 39: 45 - Люцифер
    01: 49: 49 - Вальпургиева ночь (Сектор Газа cover)
    01: 55: 38 - телега от Паука
    01: 56: 53 - Russian Vodka (бис)
    02: 01: 15 - телега от Паука
    02: 08: 05 - Песня Русалки (Вика Астрелина)
    02: 10: 22 - заключительная телега Паука
    02: 20: 20 - занавесДата российской премьеры: 07.01.2020
    Продолжительность: 02: 20: 43
    Качество видео: CamRip
    Видео: AVC/H.264, 736x416, ~2786 kbps
    Аудио: AAC, 2 ch, 128 kbps
    Complete name : C: VIDEOКоррозия Металла Сергей Троицкий (Паук)(Паук) Lives(Паук) Liveв в клубе Ионотека 07.01.2020.mp4
    Format : MPEG-4
    Format profile : Base Media/Version 2
    Codec ID : mp42 (mp42/isom)
    File size : 2.87 GiB
    Duration : 2 h 20 min
    Overall bit rate mode : Variable
    Overall bit rate : 2 917 kb/s
    Encoded date : UTC 2020-01-21 13: 18: 06
    Tagged date : UTC 2020-01-21 13: 18: 06
    Video
    ID : 2
    Format : AVC
    Format/Info : Advanced Video Codec
    Format profile : Baseline@L3
    Format settings : 3 Ref Frames
    Format settings, CABAC : No
    Format settings, Reference frames : 3 frames
    Format settings, GOP : M=1, N=15
    Codec ID : avc1
    Codec ID/Info : Advanced Video Coding
    Duration : 2 h 20 min
    Bit rate mode : Variable
    Bit rate : 2 786 kb/s
    Maximum bit rate : 4 000 kb/s
    Width : 736 pixels
    Height : 416 pixels
    Display aspect ratio : 16: 9
    Frame rate mode : Constant
    Frame rate : 25.000 FPS
    Standard : NTSC
    Color space : YUV
    Chroma subsampling : 4: 2: 0
    Bit depth : 8 bits
    Scan type : Progressive
    Bits/(Pixel*Frame) : 0.364
    Stream size : 2.74 GiB (96%)
    Language : English
    Encoded date : UTC 2020-01-21 13: 18: 06
    Tagged date : UTC 2020-01-21 13: 18: 06
    Color range : Limited
    Codec configuration box : avcC
    Audio
    ID : 1
    Format : AAC LC
    Format/Info : Advanced Audio Codec Low Complexity
    Codec ID : mp4a-40-2
    Duration : 2 h 20 min
    Bit rate mode : Constant
    Bit rate : 128 kb/s
    Channel(s) : 2 channels
    Channel layout : L R
    Sampling rate : 48.0 kHz
    Frame rate : 46.875 FPS (1024 SPF)
    Compression mode : Lossy
    Stream size : 129 MiB (4%)
    Language : English
    Encoded date : UTC 2020-01-21 13: 18: 06
    Tagged date : UTC 2020-01-21 13: 18: 06

    Скриншоты для ознакомления



    Все одноименные релизы в Клубе
    Время раздачи: с 08: 00 до 24: 00 (до появления первых 3-5 скачавших)
    Рейтинг →
     (голосов: 1, оценка 4/5, голосовать можно 1 раз )

    Другие торренты по теме:

  • Сергей Зверев | Первая пуля – моя (2020) [MP3]
  • Сергей Гвоздика - Сергей Гвоздика (2014) [MP3|320 кб / с]<Шансон> скачать через торрент бесплатно
  • Сергей Соловьев, Сергей Платонов | Император Всероссийский (2018) [FB2]
  • Сергей Кабаченко | Веселая кулинария для детей. 100+ идей для творчества (2012) [PDF]
  • Сергей Дудин - Вечный зов (2006) [MP3|320 кб / с]<Progressive Rock>
  • Сергей Снегов | Экспедиция в иномир [Главы 1-02 из 31. Обновляемая] (2014) [MP3] скачать через торрент бесплатно
  • Сергей Тармашев | Сборник произведений (2011-2014) [OGG] скачать через торрент бесплатно
  • Сергей Брежнев | Мастер-класс по работе с цветом и тонировке (2014) PCRec (H.264) скачать через торрент бесплатно


    • Комментарии (0):

      Информация

      Информация

        Посетители, находящиеся в группе Гости, не могут оставлять комментарии в данной новости.