Подписывайся на наш канал в Telegram https://t.me/torrentok и получи доступ к торрентам без ограничений!
.
Авторизация | Регистрация
torrent123.club


Монгол Шуудан - 46 Music Videos (2007-2020) WEB-DL [H.264 / 1080p / 720p / 480p-LQ] торрент скачать бесплатно

Дата: 31-01-2020, 05:00 | .torrent скачали: 3

Монгол Шуудан - 46 Music Videos (2007-2020) WEB-DL [H.264 / 1080p / 720p / 480p-LQ]Жанр: Альтернативный Рок

Описание

Монгол Шуудан - Official Music Videos:
Монгол Шуудан - Анархическая вольница (640 х 480).mkv
Монгол Шуудан - Батько Махно (720 x 536).mp4
Монгол Шуудан - Дальняя дорога (Я хотела увидеть ангелов) (720 x 576).mp4
Монгол Шуудан - Иди, убей Бакунина (Official) (640 x 480).mkv
Монгол Шуудан - Козырь-наш мандат (Official) (640 x 480).mkv
Монгол Шуудан - Колыбельная (Animated Cartoon) (960 x 720).mp4Монгол Шуудан - Москва (Official) (explicit version) (640 x 480).mkv
Монгол Шуудан - Повезло (Official) (656 x 480) .mkv
Монгол Шуудан - Седьмой Патрон (Live) (Official) (1080).mp4
Монгол Шуудан - Тамада (Live) (Official) (1080).mp4
Монгол Шуудан - Чекист (Live) (Official) (1080).mp4
Монгол_Шуудан_-_Москва-MPEG-2.0-PAL-1994.mpg
Монгол_Шуудан_-_Повезло-MPEG-2.0-PAL-2002.mpg
Монгол Шуудан - Unofficial Music Videos:
Забава (Есенин) (720 x 400).mkv
Любо братцы , любо (Кочубей) (640 x 480).mp4
Монгол Шуудан - Балалайка (Бег) (by bvanaJo) (640х480).mkv
Монгол Шуудан - ВИНИ-ПУХ (640 x 480).mkv
Монгол Шуудан - Звезда (Интервенция) (640 x 480).mkv
Монгол Шуудан - Колоколенка (Батальоны просят огня) (by TMHD) (1280 x 720).mkv
Монгол Шуудан - Лошадка (Live) (UnOfficial) (1080).mp4
Монгол Шуудан - Любо, любо мне (640 x 360).mkv
Монгол Шуудан - Мама Анархия (640 x 360).mkv
Монгол Шуудан - Мама-Анархия (Девять жизней Нестора Махно) (by Mc Brain) 1280 x 720.mkv
Монгол Шуудан - Махно (Знак качества 1997) (640 x 480).mp4
Монгол Шуудан - Махно (Махно) (by bvanaJo) (640 x 480).mkv
Монгол Шуудан - Медная монета (Служили 2 Товарища) (1280 x 544).mkv
Монгол Шуудан - Москва (Cover by Just Play) 1080.mp4
Монгол Шуудан - Москва (ВГТРК) (720 x 408).mkv
Монгол Шуудан - Москва V.1 (на стихи С. Есенина) (960 x 720).mkv
Монгол Шуудан - Москва V.2 (768 x 576).mkv
Монгол Шуудан - Нас носило по cтепи (Свой среди своих) (by behrhfhdu) (1920 x 1080).mkv
Монгол Шуудан - Наше небо (Спартак Москва) (640 x 480).mkv
Монгол Шуудан - Не моя забота (John Wick) (by behrhfhdu) (1920 x 1080).mkv
Монгол Шуудан - Полцарства за коня! (640 x 480).mkv
Монгол Шуудан - Правая победа (Live MEZZO FORTE 2011) (1920 x 1080).mp4
Монгол Шуудан - Правая Победа (Live Правда.Ру) (1280 x 720).mp4
Монгол Шуудан - Продразвёрстка (by CREBS133A) 1280 x 720.mkv
Монгол Шуудан - Разговор со смертью (640 x 480).mkv
Монгол Шуудан - Свобода (Служили 2 Товарища) (1280 x 544).mkv
Монгол Шуудан - Сдвинь Корону Набок (by Vayper) (720 x 304) 2011.mp4
Монгол Шуудан - Трус (Pirates of the Caribbean) (by behrhfhdu) (1920 x 1080).mkv
Монгол Шуудан - Трюмо и разбойник (by Vayper) (640 x 480) 2011.mp4
Монгол Шуудан - Финский нож (Animated Cartoon) (1920 x 1080).mp4
Монгол Шуудан - Шабаш на Лысой горе (Бумбараш) (640 x 480).mkv
Монгол Шуудан - Яблочко (Собачье сердце) (720 x 576).mkv
Монгол-Шуудан - Не моя забота (Мальчиш-Кибальчиш) (by Andrew Barhatov) (720 x 576).mkvПродолжительность: 01: 24: 56
Качество видео: WEB-DL
Видео: AVC/H.264, 1920x1080, ~4057 kbps, 1280x720, ~1196 kbps, 720x536, ~1237 kbps, 640x480, ~827 kbps, 1280x544, ~2533 kbps
Аудио: MP3, 2 ch, 320 kbps
General
Unique ID : 206783368510904673857954071358408221731 (0x9B9107344A649510A3AB931AD0AFE423)
Complete name : C: VIDEOМонгол ШууданМонгол Шуудан - Music VideosМонгол Шуудан - Unofficial Music VideosМонгол Шуудан - Мама-Анархия (Девять жизней Нестора Махно) (by Mc Brain) 1280 x 720.mkv
Format : Matroska
Format version : Version 2
File size : 36.1 MiB
Duration : 3 min 16 s
Overall bit rate mode : Variable
Overall bit rate : 1 546 kb/s
Encoded date : UTC 2020-01-22 14: 45: 41
Writing application : mkvmerge v4.1.1 (\'Bouncin\' Back\') сборка от Jul 3 2010 22: 54: 08
Writing library : libebml v1.0.0 + libmatroska v1.0.0
Video
ID : 1
Format : AVC
Format/Info : Advanced Video Codec
Format profile : Main@L3.1
Format settings : CABAC/3 Ref Frames
Format settings, CABAC : Yes
Format settings, Reference frames : 3 frames
Codec ID : V_MPEG4/ISO/AVC
Duration : 3 min 16 s
Bit rate : 1 273 kb/s
Width : 1 280 pixels
Height : 720 pixels
Display aspect ratio : 16: 9
Frame rate mode : Constant
Frame rate : 29.970 (30000/1001) FPS
Color space : YUV
Chroma subsampling : 4: 2: 0
Bit depth : 8 bits
Scan type : Progressive
Bits/(Pixel*Frame) : 0.046
Stream size : 29.7 MiB (82%)
Default : Yes
Forced : No
Audio
ID : 2
Format : MPEG Audio
Format version : Version 1
Format profile : Layer 3
Muxing mode : Header stripping
Codec ID : A_MPEG/L3
Codec ID/Hint : MP3
Duration : 3 min 16 s
Bit rate mode : Variable
Bit rate : 243 kb/s
Channel(s) : 2 channels
Sampling rate : 48.0 kHz
Frame rate : 41.667 FPS (1152 SPF)
Compression mode : Lossy
Stream size : 5.68 MiB (16%)
Default : Yes
Forced : No
General
Unique ID : 221111857002935238414912275498945814199 (0xA658983ABA196EB6910EC9F05F6D1EB7)
Complete name : C: VIDEOМонгол ШууданМонгол Шуудан - Music VideosМонгол Шуудан - Unofficial Music VideosМонгол Шуудан - Нас носило по cтепи (Свой среди своих) (by behrhfhdu) (1920 x 1080).mkv
Format : Matroska
Format version : Version 2
File size : 62.8 MiB
Duration : 3 min 42 s
Overall bit rate mode : Variable
Overall bit rate : 2 371 kb/s
Encoded date : UTC 2020-01-22 15: 42: 09
Writing application : mkvmerge v4.1.1 (\'Bouncin\' Back\') сборка от Jul 3 2010 22: 54: 08
Writing library : libebml v1.0.0 + libmatroska v1.0.0
Video
ID : 1
Format : AVC
Format/Info : Advanced Video Codec
Format profile : High@L4
Format settings : CABAC/3 Ref Frames
Format settings, CABAC : Yes
Format settings, Reference frames : 3 frames
Codec ID : V_MPEG4/ISO/AVC
Duration : 3 min 42 s
Bit rate : 2 087 kb/s
Width : 1 920 pixels
Height : 1 080 pixels
Display aspect ratio : 16: 9
Frame rate mode : Constant
Frame rate : 29.970 (30000/1001) FPS
Color space : YUV
Chroma subsampling : 4: 2: 0
Bit depth : 8 bits
Scan type : Progressive
Bits/(Pixel*Frame) : 0.034
Stream size : 55.3 MiB (88%)
Default : Yes
Forced : No
Color range : Limited
Color primaries : BT.709
Transfer characteristics : BT.709
Matrix coefficients : BT.709
Audio
ID : 2
Format : MPEG Audio
Format version : Version 1
Format profile : Layer 3
Muxing mode : Header stripping
Codec ID : A_MPEG/L3
Codec ID/Hint : MP3
Duration : 3 min 42 s
Bit rate mode : Variable
Bit rate : 237 kb/s
Channel(s) : 2 channels
Sampling rate : 48.0 kHz
Frame rate : 41.667 FPS (1152 SPF)
Compression mode : Lossy
Stream size : 6.27 MiB (10%)
Default : Yes
Forced : No
General
Unique ID : 203350155780401423769747813262116897756 (0x98FBD0BF73C20D1886F717CCA591C3DC)
Complete name : C: VIDEOМонгол ШууданМонгол Шуудан - Music VideosМонгол Шуудан - Unofficial Music VideosМонгол Шуудан - Яблочко (Собачье сердце) (720 x 576).mkv
Format : Matroska
Format version : Version 1
File size : 42.7 MiB
Duration : 4 min 58 s
Overall bit rate mode : Variable
Overall bit rate : 1 200 kb/s
Encoded date : UTC 2020-01-21 23: 57: 44
Writing application : mkvmerge v2.4.0 (\'Fumbling Towards Ecstasy\') built on Oct 11 2008 20: 13: 15
Writing library : libebml v0.7.7 + libmatroska v0.8.1
Video
ID : 1
Format : AVC
Format/Info : Advanced Video Codec
Format profile : High@L4.1
Format settings : CABAC/3 Ref Frames
Format settings, CABAC : Yes
Format settings, Reference frames : 3 frames
Codec ID : V_MPEG4/ISO/AVC
Duration : 4 min 58 s
Bit rate : 1 021 kb/s
Width : 720 pixels
Height : 576 pixels
Display aspect ratio : 5: 4
Frame rate mode : Constant
Frame rate : 23.976 (23976/1000) FPS
Color space : YUV
Chroma subsampling : 4: 2: 0
Bit depth : 8 bits
Scan type : Progressive
Bits/(Pixel*Frame) : 0.103
Stream size : 36.3 MiB (85%)
Writing library : x264 core 65 r999kMod cc51047
Encoding settings : cabac=1/ref=3/deblock=1: 0: 0/analyse=0x3: 0x133/me=umh/subme=6/psy_rd=1.0: 0.0/mixed_ref=1/me_range=16/chroma_me=1/trellis=1/8x8dct=1/cqm=0/deadzone=21, 11/chroma_qp_offset=-2/threads=4/thread_queue=4/nr=0/decimate=1/mbaff=0/bframes=3/b_pyramid=1/b_adapt=1/b_bias=0/direct=1/wpredb=1/keyint=250/keyint_min=25/scenecut=40(pre)/rc=crf/crf=21.0000/qcomp=0.60/qpmin=10/qpmax=51/qpstep=4/ip_ratio=1.40/pb_ratio=1.30/aq=1: 1.00
Default : Yes
Forced : No
Audio
ID : 2
Format : MPEG Audio
Format version : Version 1
Format profile : Layer 3
Codec ID : A_MPEG/L3
Codec ID/Hint : MP3
Duration : 4 min 58 s
Bit rate mode : Variable
Bit rate : 155 kb/s
Minimum bit rate : 32.0 kb/s
Channel(s) : 2 channels
Sampling rate : 44.1 kHz
Frame rate : 38.281 FPS (1152 SPF)
Compression mode : Lossy
Stream size : 5.53 MiB (13%)
Writing library : LAME3.97
Encoding settings : -m s -V 4 -q 2 -lowpass 17.5 --vbr-old -b 32
Default : Yes
Forced : No
General
Unique ID : 187966082485143692242582279078398931235 (0x8D68F35FAE6615F78D81760398243123)
Complete name : C: VIDEOМонгол ШууданМонгол Шуудан - Music VideosМонгол Шуудан - Unofficial Music VideosМонгол Шуудан - Балалайка (Бег) (by bvanaJo) (640х480).mkv
Format : Matroska
Format version : Version 2
File size : 40.8 MiB
Duration : 4 min 52 s
Overall bit rate : 1 170 kb/s
Encoded date : UTC 2020-01-22 03: 03: 18
Writing application : mkvmerge v4.1.1 (\'Bouncin\' Back\') сборка от Jul 3 2010 22: 54: 08
Writing library : libebml v1.0.0 + libmatroska v1.0.0
Video
ID : 1
Format : AVC
Format/Info : Advanced Video Codec
Format profile : High@L4.1
Format settings : CABAC/3 Ref Frames
Format settings, CABAC : Yes
Format settings, Reference frames : 3 frames
Codec ID : V_MPEG4/ISO/AVC
Duration : 4 min 52 s
Bit rate : 827 kb/s
Width : 640 pixels
Height : 480 pixels
Display aspect ratio : 4: 3
Frame rate mode : Constant
Frame rate : 18.000 FPS
Color space : YUV
Chroma subsampling : 4: 2: 0
Bit depth : 8 bits
Scan type : Progressive
Bits/(Pixel*Frame) : 0.149
Stream size : 28.8 MiB (71%)
Writing library : x264 core 65 r999kMod cc51047
Encoding settings : cabac=1/ref=3/deblock=1: 0: 0/analyse=0x3: 0x133/me=umh/subme=6/psy_rd=1.0: 0.0/mixed_ref=1/me_range=16/chroma_me=1/trellis=1/8x8dct=1/cqm=0/deadzone=21, 11/chroma_qp_offset=-2/threads=4/thread_queue=4/nr=0/decimate=1/mbaff=0/bframes=3/b_pyramid=1/b_adapt=1/b_bias=0/direct=1/wpredb=1/keyint=250/keyint_min=25/scenecut=40(pre)/rc=crf/crf=21.0000/qcomp=0.60/qpmin=10/qpmax=51/qpstep=4/ip_ratio=1.40/pb_ratio=1.30/aq=1: 1.00
Default : Yes
Forced : No
Audio
ID : 2
Format : MPEG Audio
Format version : Version 1
Format profile : Layer 3
Format settings : Joint stereo
Muxing mode : Header stripping
Codec ID : A_MPEG/L3
Codec ID/Hint : MP3
Duration : 4 min 49 s
Bit rate mode : Constant
Bit rate : 320 kb/s
Channel(s) : 2 channels
Sampling rate : 44.1 kHz
Frame rate : 38.281 FPS (1152 SPF)
Compression mode : Lossy
Stream size : 11.1 MiB (27%)
Writing library : LAME3.99r
Encoding settings : -m j -V 4 -q 3 -lowpass 20.5
Default : Yes
Forced : No

Монгол Шуудан - 46 Music Videos (2007-2020) WEB-DL [H.264/1080p/720p/480p-LQ]
Рейтинг →
 (голосов: 1, оценка 5/5, голосовать можно 1 раз )

Другие торренты по теме:

  • Монгол Шуудан - Легенды русского рока (2005) [FLAC|Lossless]<Rock>
  • Монгол Шуудан - Инстинкт агрессивности (2017) [MP3|320 Kbps] <Punk Rock>
  • Монгол Шуудан - Паровоз анархия реинкарнация (2019) [MP3|320 Kbps] <Punk Rock>
  • Монгол Шуудан - Паровоз Анархия. Реинкарнация (2019) [FLAC|Lossless|image + .cue] <Punk Rock>
  • Монгол Шуудан - Гуляй Поле Реанимация (2020) [FLAC|Lossless|WEB-DL|tracks] <Punk Rock>
  • Монгол Шуудан - Гуляй Поле Реанимация (2020) [MP3|320 Kbps] <Punk Rock>
  • Монгол Шуудан - 16 Albums + 2 Sinle`s + 6 Live + 3 Compilation + Bonus (1989-2020) [MP3|128-320 kbps] <Punk Rock, Анархо-панк>
  • Монгол Шуудан - Гуляй Поле Реанимация (2020) [FLAC|Lossless|image + .cue] <Punk Rock>


    • Комментарии (0):

      Информация

      Информация

        Посетители, находящиеся в группе Гости, не могут оставлять комментарии в данной новости.