Подписывайся на наш канал в Telegram https://t.me/torrentok и получи доступ к торрентам без ограничений!
.
Авторизация | Регистрация
torrent123.club
Торрент трекер | Скачать торрент | Скачать Через Торрент | Скачать торрент бесплатно | Скачать торрент без регистрации Другое торрент скачать Декабрь - Мы не оставим города свои (22 Music Videos) (2017) WEB-DL [Н.264 / 360p / 480p / 720p / 1080p-LQ] торрент скачать бесплатно

    Декабрь - Мы не оставим города свои (22 Music Videos) (2017) WEB-DL [Н.264 / 360p / 480p / 720p / 1080p-LQ] торрент скачать бесплатно

    Дата: 2-02-2020, 05:00 | .torrent скачали: 0

    Декабрь - Мы не оставим города свои (22 Music Videos) (2017) WEB-DL [Н.264 / 360p / 480p / 720p / 1080p-LQ]Жанр: хардкор-панк, альтернативный метал, хард-рок, хеви-метал
    Участники: Михаил Семёнов, Игорь Юганов
    Продолжительность: 01: 33: 15
    Качество видео: WEB-DL-LQ
    Видео: AVC/H.264, 1920x1080 ~3496 kbps, 1280x720 ~2367 kbps, 1280x528 ~1409 kbps, 854x480 ~998 kbps, 720x720 ~408 kbps, 640x480 ~935 kbps, 480x360 ~478 kbps
    Аудио: AAC 2 ch, ~128 kb/s
    Треклист:
    01 гр. Декабрь - Предисловие 720 x 720.mp4
    02 гр. Декабрь - Мы не оставим города свои (OST Cевастополь) 1280 x 528.mp4
    02 гр. Декабрь - Мы не оставим города свои. Мы обязательно дойдем! (Крым) 1280 x 720.mp4
    02 гр. Декабрь - Мы не оставим города свои ! (кинохроника В.О.В.) гимн 14-го Байк-шоу 2010 480 x 360.mp4
    02 гр. Декабрь - Мы не оставим города свои (Байк шоу в Севастополе 2015) 1920 x 1080 .mp4
    02 гр. Декабрь - Мы не оставим города свои (Байк Шоу Новороссийск 2011) 640 x 480.mp403 гр. Декабрь - Севастополь останется русским (OST Оборона Севастополя) 1280 x 720.mp4
    03 гр. Декабрь - Севастополь останется русским (байк-шоу Кузница Победы 2015) 854 x 480.mp4
    04 гр. Декабрь - Одесса Мама 1920 x 1080.mp4
    05 гр. Декабрь - Землянка 720 x 720.mp4
    06 гр. Декабрь - Война (Чартова Дюжина 2009) 640 x 480.mp4
    07 гр. Декабрь - Парни не плачут (BalconyTV 2014) 1920 x 1080.mp4
    07 гр. Декабрь - Парни не плачут (Germany, Essen, Grugahalle 2014) 1280 x 720.mp4
    08 гр. Декабрь - На братских могилах 640 x 480.mp4
    09 гр. Декабрь - Всё нормально ребят (2013) 1920 x 1080.mp4
    10 гр. Декабрь - Дубинушка 1280 x 720.mp4
    11 гр. Декабрь - Кто я, без тебя 1280 x 720.mp4
    12 гр. Декабрь - Мы сможем победить! 1920 x 1080.mp4
    13 гр. Декабрь - Морская 2011 640 x 480.mp4
    14 гр. Декабрь - Волки (DeadLink Inc) 1920 x 1080.mp4
    14 гр. Декабрь - Волки (Сумерки) 1920 x 1080.mp4
    15 гр. Декабрь - Свой Плен 2010 1280 x 720I.mp4Релиз от: Vayper
    General
    Complete name : C: AUDIOVA - Мы не оставим города свои. Декабрь. (2017) MP3гр. Декабрь - Мы не оставим города свои (2017) Video Album2 гр. Декабрь - Мы не оставим города свои (OST Cевастополь) 1280 x 528.mp4
    Format : MPEG-4
    Format profile : Base Media
    Codec ID : isom (isom/iso2/avc1/mp41)
    File size : 50.4 MiB
    Duration : 5 min 0 s
    Overall bit rate : 1 409 kb/s
    Writing application : Lavf58.29.100
    Video
    ID : 1
    Format : AVC
    Format/Info : Advanced Video Codec
    Format profile : Main@L3.1
    Format settings : CABAC/3 Ref Frames
    Format settings, CABAC : Yes
    Format settings, Reference frames : 3 frames
    Codec ID : avc1
    Codec ID/Info : Advanced Video Coding
    Duration : 4 min 59 s
    Bit rate : 1 276 kb/s
    Width : 1 280 pixels
    Height : 528 pixels
    Display aspect ratio : 2.40: 1
    Frame rate mode : Constant
    Frame rate : 29.970 (30000/1001) FPS
    Color space : YUV
    Chroma subsampling : 4: 2: 0
    Bit depth : 8 bits
    Scan type : Progressive
    Bits/(Pixel*Frame) : 0.063
    Stream size : 45.6 MiB (91%)
    Codec configuration box : avcC
    Audio
    ID : 2
    Format : AAC LC
    Format/Info : Advanced Audio Codec Low Complexity
    Codec ID : mp4a-40-2
    Duration : 5 min 0 s
    Bit rate mode : Constant
    Bit rate : 126 kb/s
    Channel(s) : 2 channels
    Channel layout : L R
    Sampling rate : 44.1 kHz
    Frame rate : 43.066 FPS (1024 SPF)
    Compression mode : Lossy
    Stream size : 4.49 MiB (9%)
    Default : Yes
    Alternate group : 1
    General
    Complete name : C: AUDIOVA - Мы не оставим города свои. Декабрь. (2017) MP3гр. Декабрь - Мы не оставим города свои (2017) Video Album2 гр. Декабрь - Мы не оставим города свои. Мы обязательно дойдем! (Крым) 1280 x 720.mp4
    Format : MPEG-4
    Format profile : Base Media
    Codec ID : isom (isom/iso2/avc1/mp41)
    File size : 39.3 MiB
    Duration : 3 min 14 s
    Overall bit rate : 1 698 kb/s
    Writing application : Lavf58.29.100
    Video
    ID : 1
    Format : AVC
    Format/Info : Advanced Video Codec
    Format profile : Main@L3.1
    Format settings : CABAC/3 Ref Frames
    Format settings, CABAC : Yes
    Format settings, Reference frames : 3 frames
    Codec ID : avc1
    Codec ID/Info : Advanced Video Coding
    Duration : 3 min 13 s
    Bit rate : 1 567 kb/s
    Width : 1 280 pixels
    Height : 720 pixels
    Display aspect ratio : 16: 9
    Frame rate mode : Variable
    Frame rate : 25.000 FPS
    Minimum frame rate : 25.000 FPS
    Maximum frame rate : 1 000.000 FPS
    Color space : YUV
    Chroma subsampling : 4: 2: 0
    Bit depth : 8 bits
    Scan type : Progressive
    Bits/(Pixel*Frame) : 0.068
    Stream size : 36.2 MiB (92%)
    Codec configuration box : avcC
    Audio
    ID : 2
    Format : AAC LC
    Format/Info : Advanced Audio Codec Low Complexity
    Codec ID : mp4a-40-2
    Duration : 3 min 14 s
    Bit rate mode : Constant
    Bit rate : 126 kb/s
    Channel(s) : 2 channels
    Channel layout : L R
    Sampling rate : 44.1 kHz
    Frame rate : 43.066 FPS (1024 SPF)
    Compression mode : Lossy
    Stream size : 2.91 MiB (7%)
    Default : Yes
    Alternate group : 1
    General
    Complete name : C: AUDIOVA - Мы не оставим города свои. Декабрь. (2017) MP3гр. Декабрь - Мы не оставим города свои (2017) Video Album2 гр. Декабрь - Мы не оставим города свои ! (кинохроника В.О.В.) гимн 14-го Байк-шоу 2010 480 x 360.mp4
    Format : MPEG-4
    Format profile : Base Media
    Codec ID : isom (isom/iso2/avc1/mp41)
    File size : 17.7 MiB
    Duration : 5 min 11 s
    Overall bit rate : 478 kb/s
    Writing application : Lavf58.29.100
    Video
    ID : 1
    Format : AVC
    Format/Info : Advanced Video Codec
    Format profile : Main@L2.1
    Format settings : CABAC/3 Ref Frames
    Format settings, CABAC : Yes
    Format settings, Reference frames : 3 frames
    Codec ID : avc1
    Codec ID/Info : Advanced Video Coding
    Duration : 5 min 11 s
    Bit rate : 346 kb/s
    Width : 480 pixels
    Height : 360 pixels
    Display aspect ratio : 4: 3
    Frame rate mode : Constant
    Frame rate : 25.000 FPS
    Color space : YUV
    Chroma subsampling : 4: 2: 0
    Bit depth : 8 bits
    Scan type : Progressive
    Bits/(Pixel*Frame) : 0.080
    Stream size : 12.8 MiB (72%)
    Codec configuration box : avcC
    Audio
    ID : 2
    Format : AAC LC
    Format/Info : Advanced Audio Codec Low Complexity
    Codec ID : mp4a-40-2
    Duration : 5 min 11 s
    Bit rate mode : Constant
    Bit rate : 126 kb/s
    Channel(s) : 2 channels
    Channel layout : L R
    Sampling rate : 44.1 kHz
    Frame rate : 43.066 FPS (1024 SPF)
    Compression mode : Lossy
    Stream size : 4.66 MiB (26%)
    Default : Yes
    Alternate group : 1
    General
    Complete name : C: AUDIOVA - Мы не оставим города свои. Декабрь. (2017) MP3гр. Декабрь - Мы не оставим города свои (2017) Video Album2 гр. Декабрь - Мы не оставим города свои (Байк шоу в Севастополе 2015) 1920 x 1080 .mp4
    Format : MPEG-4
    Format profile : Base Media
    Codec ID : isom (isom/iso2/avc1/mp41)
    File size : 159 MiB
    Duration : 5 min 25 s
    Overall bit rate : 4 100 kb/s
    Writing application : Lavf58.29.100
    Video
    ID : 1
    Format : AVC
    Format/Info : Advanced Video Codec
    Format profile : High@L4
    Format settings : CABAC/3 Ref Frames
    Format settings, CABAC : Yes
    Format settings, Reference frames : 3 frames
    Codec ID : avc1
    Codec ID/Info : Advanced Video Coding
    Duration : 5 min 24 s
    Bit rate : 3 969 kb/s
    Width : 1 920 pixels
    Height : 1 080 pixels
    Display aspect ratio : 16: 9
    Frame rate mode : Constant
    Frame rate : 25.000 FPS
    Color space : YUV
    Chroma subsampling : 4: 2: 0
    Bit depth : 8 bits
    Scan type : Progressive
    Bits/(Pixel*Frame) : 0.077
    Stream size : 154 MiB (97%)
    Codec configuration box : avcC
    Audio
    ID : 2
    Format : AAC LC
    Format/Info : Advanced Audio Codec Low Complexity
    Codec ID : mp4a-40-2
    Duration : 5 min 25 s
    Bit rate mode : Constant
    Bit rate : 126 kb/s
    Channel(s) : 2 channels
    Channel layout : L R
    Sampling rate : 44.1 kHz
    Frame rate : 43.066 FPS (1024 SPF)
    Compression mode : Lossy
    Stream size : 4.87 MiB (3%)
    Default : Yes
    Alternate group : 1
    General
    Complete name : C: AUDIOVA - Мы не оставим города свои. Декабрь. (2017) MP3гр. Декабрь - Мы не оставим города свои (2017) Video Album2 гр. Декабрь - Мы не оставим города свои (Байк Шоу Новороссийск 2011) 640 x 480.mp4
    Format : MPEG-4
    Format profile : Base Media
    Codec ID : isom (isom/iso2/avc1/mp41)
    File size : 29.3 MiB
    Duration : 4 min 22 s
    Overall bit rate : 935 kb/s
    Writing application : Lavf58.29.100
    Video
    ID : 1
    Format : AVC
    Format/Info : Advanced Video Codec
    Format profile : Main@L3
    Format settings : CABAC/3 Ref Frames
    Format settings, CABAC : Yes
    Format settings, Reference frames : 3 frames
    Codec ID : avc1
    Codec ID/Info : Advanced Video Coding
    Duration : 4 min 22 s
    Bit rate : 801 kb/s
    Width : 640 pixels
    Height : 480 pixels
    Display aspect ratio : 4: 3
    Frame rate mode : Constant
    Frame rate : 25.000 FPS
    Color space : YUV
    Chroma subsampling : 4: 2: 0
    Bit depth : 8 bits
    Scan type : Progressive
    Bits/(Pixel*Frame) : 0.104
    Stream size : 25.1 MiB (86%)
    Title : ISO Media file produced by Google Inc.
    Codec configuration box : avcC
    Audio
    ID : 2
    Format : AAC LC
    Format/Info : Advanced Audio Codec Low Complexity
    Codec ID : mp4a-40-2
    Duration : 4 min 22 s
    Bit rate mode : Constant
    Bit rate : 128 kb/s
    Channel(s) : 2 channels
    Channel layout : L R
    Sampling rate : 44.1 kHz
    Frame rate : 43.066 FPS (1024 SPF)
    Compression mode : Lossy
    Stream size : 4.01 MiB (14%)
    Title : ISO Media file produced by Google Inc.
    Default : Yes
    Alternate group : 1
    General
    Complete name : C: AUDIOVA - Мы не оставим города свои. Декабрь. (2017) MP3гр. Декабрь - Мы не оставим города свои (2017) Video Album3 гр. Декабрь - Севастополь останется русским (байк-шоу Кузница Победы 2015) 854 x 480.mp4
    Format : MPEG-4
    Format profile : Base Media
    Codec ID : isom (isom/iso2/avc1/mp41)
    File size : 34.0 MiB
    Duration : 4 min 45 s
    Overall bit rate : 998 kb/s
    Writing application : Lavf58.29.100
    Video
    ID : 1
    Format : AVC
    Format/Info : Advanced Video Codec
    Format profile : Main@L3.1
    Format settings : CABAC/3 Ref Frames
    Format settings, CABAC : Yes
    Format settings, Reference frames : 3 frames
    Codec ID : avc1
    Codec ID/Info : Advanced Video Coding
    Duration : 4 min 45 s
    Bit rate : 865 kb/s
    Width : 854 pixels
    Height : 480 pixels
    Display aspect ratio : 16: 9
    Frame rate mode : Constant
    Frame rate : 29.970 (30000/1001) FPS
    Color space : YUV
    Chroma subsampling : 4: 2: 0
    Bit depth : 8 bits
    Scan type : Progressive
    Bits/(Pixel*Frame) : 0.070
    Stream size : 29.4 MiB (87%)
    Codec configuration box : avcC
    Audio
    ID : 2
    Format : AAC LC
    Format/Info : Advanced Audio Codec Low Complexity
    Codec ID : mp4a-40-2
    Duration : 4 min 45 s
    Bit rate mode : Constant
    Bit rate : 126 kb/s
    Channel(s) : 2 channels
    Channel layout : L R
    Sampling rate : 44.1 kHz
    Frame rate : 43.066 FPS (1024 SPF)
    Compression mode : Lossy
    Stream size : 4.28 MiB (13%)
    Default : Yes
    Alternate group : 1
    General
    Complete name : C: AUDIOVA - Мы не оставим города свои. Декабрь. (2017) MP3гр. Декабрь - Мы не оставим города свои (2017) Video Album14 гр. Декабрь - Волки (DeadLink Inc) 1920 x 1080.mp4
    Format : MPEG-4
    Format profile : Base Media
    Codec ID : isom (isom/iso2/avc1/mp41)
    File size : 103 MiB
    Duration : 4 min 5 s
    Overall bit rate : 3 496 kb/s
    Writing application : Lavf58.29.100
    Video
    ID : 1
    Format : AVC
    Format/Info : Advanced Video Codec
    Format profile : High@L4.2
    Format settings : CABAC/2 Ref Frames
    Format settings, CABAC : Yes
    Format settings, Reference frames : 2 frames
    Codec ID : avc1
    Codec ID/Info : Advanced Video Coding
    Duration : 4 min 5 s
    Bit rate : 3 357 kb/s
    Width : 1 920 pixels
    Height : 1 080 pixels
    Display aspect ratio : 16: 9
    Frame rate mode : Constant
    Frame rate : 59.940 (60000/1001) FPS
    Color space : YUV
    Chroma subsampling : 4: 2: 0
    Bit depth : 8 bits
    Scan type : Progressive
    Bits/(Pixel*Frame) : 0.027
    Stream size : 98.4 MiB (96%)
    Title : ISO Media file produced by Google Inc. Created on: 02/15/2019.
    Color range : Limited
    Color primaries : BT.709
    Transfer characteristics : BT.709
    Matrix coefficients : BT.709
    Codec configuration box : avcC
    Audio
    ID : 2
    Format : AAC LC
    Format/Info : Advanced Audio Codec Low Complexity
    Codec ID : mp4a-40-2
    Duration : 4 min 5 s
    Bit rate mode : Constant
    Bit rate : 128 kb/s
    Channel(s) : 2 channels
    Channel layout : L R
    Sampling rate : 44.1 kHz
    Frame rate : 43.066 FPS (1024 SPF)
    Compression mode : Lossy
    Stream size : 3.75 MiB (4%)
    Title : ISO Media file produced by Google Inc. Created on: 02/15/2019.
    Language : English
    Default : Yes
    Alternate group : 1
    гр. Декабрь - Мы не оставим города свои (2017) Video Album | 1, 33 GB | Folder Total 1 | 01: 33: 15 hrs
    Folder 001 | гр. Декабрь - Мы не оставим города свои (2017) Video Album | Album - | 1, 33 GB | 22 Files | 01: 33: 15 hrs
    001 | 00: 40min | 128kbps | 44100 Hz | 2 | MPEG-4 AAC | 1, 94 MB | 01 гр. Декабрь - Предисловие 720 x 720 |
    002 | 05: 00min | 126kbps | 44100 Hz | 2 | MPEG-4 AAC | 50, 39 MB | 02 гр. Декабрь - Мы не оставим города свои (OST Cевастополь) 1280 x 528 |
    003 | 03: 14min | 126kbps | 44100 Hz | 2 | MPEG-4 AAC | 39, 28 MB | 02 гр. Декабрь - Мы не оставим города свои. Мы обязательно дойдем! (Крым) 1280 x 720 |
    004 | 05: 11min | 126kbps | 44100 Hz | 2 | MPEG-4 AAC | 17, 73 MB | 02 гр. Декабрь - Мы не оставим города свои ! (кинохроника В.О.В.) гимн 14-го Байк-шоу 2010 480 x 360 |
    005 | 05: 25min | 126kbps | 44100 Hz | 2 | MPEG-4 AAC | 158, 86 MB | 02 гр. Декабрь - Мы не оставим города свои (Байк шоу в Севастополе 2015) 1920 x 1080 |
    006 | 04: 23min | 128kbps | 44100 Hz | 2 | MPEG-4 AAC | 29, 30 MB | 02 гр. Декабрь - Мы не оставим города свои (Байк Шоу Новороссийск 2011) 640 x 480 |
    007 | 04: 19min | 126kbps | 44100 Hz | 2 | MPEG-4 AAC | 57, 86 MB | 03 гр. Декабрь - Севастополь останется русским (OST Оборона Севастополя) 1280 x 720 |
    008 | 04: 46min | 126kbps | 44100 Hz | 2 | MPEG-4 AAC | 33, 98 MB | 03 гр. Декабрь - Севастополь останется русским (байк-шоу Кузница Победы 2015) 854 x 480 |
    009 | 04: 16min | 95kbps | 48000 Hz | 2 | MPEG-4 AAC | 115, 47 MB | 04 гр. Декабрь - Одесса Мама 1920 x 1080 |
    010 | 03: 41min | 128kbps | 44100 Hz | 2 | MPEG-4 AAC | 10, 54 MB | 05 гр. Декабрь - Землянка 720 x 720 |
    011 | 05: 34min | 128kbps | 44100 Hz | 2 | MPEG-4 AAC | 39, 21 MB | 06 гр. Декабрь - Война (Чартова Дюжина 2009) 640 x 480 |
    012 | 06: 29min | 126kbps | 44100 Hz | 2 | MPEG-4 AAC | 165, 49 MB | 07 гр. Декабрь - Парни не плачут (BalconyTV 2014) 1920 x 1080 |
    013 | 04: 16min | 126kbps | 44100 Hz | 2 | MPEG-4 AAC | 69, 22 MB | 07 гр. Декабрь - Парни не плачут (Germany, Essen, Grugahalle 2014) 1280 x 720 |
    014 | 02: 15min | 126kbps | 44100 Hz | 2 | MPEG-4 AAC | 13, 17 MB | 08 гр. Декабрь - На братских могилах 640 x 480 |
    015 | 04: 24min | 128kbps | 44100 Hz | 2 | MPEG-4 AAC | 69, 64 MB | 09 гр. Декабрь - Всё нормально ребят (2013) 1920 x 1080 |
    016 | 04: 51min | 128kbps | 44100 Hz | 2 | MPEG-4 AAC | 47, 43 MB | 10 гр. Декабрь - Дубинушка 1280 x 720 |
    017 | 04: 29min | 128kbps | 44100 Hz | 2 | MPEG-4 AAC | 75, 89 MB | 11 гр. Декабрь - Кто я, без тебя 1280 x 720 |
    018 | 04: 28min | 126kbps | 44100 Hz | 2 | MPEG-4 AAC | 73, 65 MB | 12 гр. Декабрь - Мы сможем победить! 1920 x 1080 |
    019 | 03: 55min | 126kbps | 44100 Hz | 2 | MPEG-4 AAC | 31, 95 MB | 13 гр. Декабрь - Морская 2011 640 x 480 |
    020 | 04: 06min | 128kbps | 44100 Hz | 2 | MPEG-4 AAC | 102, 52 MB | 14 гр. Декабрь - Волки (DeadLink Inc) 1920 x 1080 |
    021 | 03: 49min | 126kbps | 44100 Hz | 2 | MPEG-4 AAC | 99, 45 MB | 14 гр. Декабрь - Волки (Сумерки) 1920 x 1080 |
    022 | 03: 44min | 128kbps | 44100 Hz | 2 | MPEG-4 AAC | 62, 32 MB | 15 гр. Декабрь - Свой Плен 2010 1280 x 720I |Группа Декабрь представляет новый официальный сборник Мы не оставим города свои.
    Эта пластинка является студийным воплощением концертной одноименной программы.
    В качестве названия была использована строчка одной из самых главных песен группы Декабрь - Мы не оставим города свои. Именно эта песня стала своеобразным гимном Русской весны 2014 года и неофициальным гимном города Севастополь.
    Сборник является концептуальной работой, в которой объединены песни о войне, о Родине и о любви, которая должна спасти этот мир.
    Среди песен о Великой отечественной войне, которые стали уже народными, в сборник вошли и новые песни о войне, которая идёт сегодня на Донбассе.
    Например, автором песни Война является Сергей Чуйков, который живет в Луганске (ЛНР), а предисловие и послесловие пластинки исполнил Луганский квартет Сфорцандо.
    В пластинку вошло 14 композиций.
    Некоторые песни были переписаны с обновленным звуком, некоторые в первые обрели студийное воплощение.

    Декабрь - Мы не оставим города свои (22 Music Videos) (2017) WEB-DL [Н.264/360p/480p/720p/1080p-LQ]
    Рейтинг →
     (голосов: 1, оценка 3/5, голосовать можно 1 раз )

    Другие торренты по теме:

  • Декабрь - Мы не оставим города свои (2017) [MP3|320 Kbps] <Hard Rock>


    • Комментарии (0):

      Информация

      Информация

        Посетители, находящиеся в группе Гости, не могут оставлять комментарии в данной новости.