Подписывайся на наш канал в Telegram https://t.me/torrentok и получи доступ к торрентам без ограничений!
.
Авторизация | Регистрация
torrent123.club


Гемини / Gemini Man (2019) HDRip [H.265] [10-bit] [60 fps] торрент скачать бесплатно

Дата: 3-02-2020, 05:00 | .torrent скачали: 7

Гемини / Gemini Man (2019) HDRip [H.265] [10-bit] [60 fps]Производство: Китай, США/Skydance Media, Jerry Bruckheimer Films, Fosun Group Forever Pictures
Жанр: Фантастика, боевик, триллер, драма
Режиссер: Энг Ли

Актеры
Уилл Смит, Мэри Элизабет Уинстэд, Клайв Оуэн, Бенедикт Вонг, Дуглас Ходж, Теодора Вулли, Ральф Браун, Линда Эмонд, Андреа Суч, Илья Волох

Описание
Генри Броган — киллер, много лет выполнявший специальные задания силовых структур. Во время последней операции он как всегда мастерски выполнил задание и с этого момента решил отойти от дел. От старого друга он узнает, что последняя жертва была невиновна. Поскольку Генри узнал лишнее, его бывшая структура решает убрать бывшего киллера. Зачистка поручена особому подразделению под кодовым названием Гемини. Генри обезвреживает агентов, подосланных к нему домой. Однако следующий агент оказывается одного с ним уровня подготовки и даже лучше.


Возраст: 12+ (зрителям, достигшим 12 лет)
Рейтинг MPAA: PG-13 (детям до 13 лет просмотр нежелателен)
Дата мировой премьеры: 25 сентября 2019
Дата российской премьеры: 10 октября 2019
Цифровой релиз: 2 января 2020

Продолжительность: 01: 57: 03
Качество видео: HDRip
Перевод: Дублированный (Лицензия)
Субтитры: Русские, английские
Видео: HEVC/H.265, 1024x554, 3440 Kbps, 59.940 fps
Аудио 1 : AC3, 6 ch, 384 Kbps | Русский
Аудио 2 : AC3, 6 ch, 384 Kbps | АнглийскийОбщее
Уникальный идентификатор : 101413764477219312957344677785255957830 (0x4C4B94A0C206BFED96C339ACAEFA5546)
Полное имя : Gemini.Man.2019.HDRip.60fps.HEVC.mkv
Формат : Matroska
Версия формата : Version 4/Version 2
Размер файла : 3, 51 Гбайт
Продолжительность : 1 ч. 57 м.
Общий поток : 4293 Кбит/сек
Название фильма : Gemini Man 2019
Программа кодирования : XviD4PSP 8.0.91
Библиотека кодирования : Lavf58.20.100
ErrorDetectionType : Per level 1
ENCODING_INFO : MATROSKA, WEBM MKV 1024x576
Видео
Идентификатор : 1
Формат : HEVC
Формат/Информация : High Efficiency Video Coding
Профиль формата : Main10@L4.1@High
Идентификатор кодека : V_MPEGH/ISO/HEVC
Продолжительность : 1 ч. 57 м.
Битрейт : 3440 Кбит/сек
Ширина : 1024 пикселя
Высота : 554 пикселя
Соотношение сторон : 1, 85: 1
Режим частоты кадров : Постоянный
Частота кадров : 59, 940 (60000/1001) кадров/сек
Цветовое пространство : YUV
Субдискретизация насыщенности : 4: 2: 0
Битовая глубина : 10 бит
Бит/(Пиксели*Кадры) : 0.101
Размер потока : 2, 81 Гбайт (80%)
Заголовок : Encoded by seleZen
Default : Да
Forced : Нет
Цветовой диапазон : Limited
Основные цвета : BT.709
Характеристики трансфера : BT.709
Коэффициенты матрицы : BT.709
ENCODING_INFO : H264 HEVC NVENC VBR 3500kbps HQ
Аудио #1
Идентификатор : 2
Формат : AC-3
Формат/Информация : Audio Coding 3
Параметр Endianness формата : Big
Идентификатор кодека : A_AC3
Продолжительность : 1 ч. 57 м.
Вид битрейта : Постоянный
Битрейт : 384 Кбит/сек
Каналы : 6 каналов
Расположение каналов : Front: L C R, Side: L R, LFE
Частота : 48, 0 КГц
Частота кадров : 31, 250 кадров/сек (1536 SPF)
Битовая глубина : 16 бит
Метод сжатия : С потерями
Размер потока : 321 Мбайт (9%)
Заголовок : Dub License
Язык : Russian
ServiceKind/String : Complete Main
Default : Да
Forced : Нет
ENCODING_INFO : AC3 AC3 CBR 384kbps
Аудио #2
Идентификатор : 3
Формат : AC-3
Формат/Информация : Audio Coding 3
Параметр Endianness формата : Big
Идентификатор кодека : A_AC3
Продолжительность : 1 ч. 57 м.
Вид битрейта : Постоянный
Битрейт : 384 Кбит/сек
Каналы : 6 каналов
Расположение каналов : Front: L C R, Side: L R, LFE
Частота : 48, 0 КГц
Частота кадров : 31, 250 кадров/сек (1536 SPF)
Битовая глубина : 16 бит
Метод сжатия : С потерями
Размер потока : 321 Мбайт (9%)
Заголовок : Original
Язык : English
ServiceKind/String : Complete Main
Default : Нет
Forced : Нет
ENCODING_INFO : AC3 AC3 CBR 384kbps
Текст #1
Идентификатор : 4
Формат : UTF-8
Идентификатор кодека : S_TEXT/UTF8
Идентификатор кодека/Информация : UTF-8 Plain Text
Заголовок : Forced
Язык : Russian
Default : Да
Forced : Да
ENCODING_INFO : SUBRIP COPY Быстрое
Текст #2
Идентификатор : 5
Формат : UTF-8
Идентификатор кодека : S_TEXT/UTF8
Идентификатор кодека/Информация : UTF-8 Plain Text
Заголовок : Full
Язык : Russian
Default : Нет
Forced : Нет
ENCODING_INFO : SUBRIP COPY Быстрое
Текст #3
Идентификатор : 6
Формат : UTF-8
Идентификатор кодека : S_TEXT/UTF8
Идентификатор кодека/Информация : UTF-8 Plain Text
Заголовок : Full
Язык : English
Default : Нет
Forced : Нет
ENCODING_INFO : SUBRIP COPY Быстрое
Меню
00: 00: 00.000 : : Глава 01
00: 07: 21.650 : : Глава 02
00: 15: 31.681 : : Глава 03
00: 18: 13.134 : : Глава 04
00: 24: 39.520 : : Глава 05
00: 30: 59.441 : : Глава 06
00: 34: 09.464 : : Глава 07
00: 42: 40.308 : : Глава 08
00: 50: 24.897 : : Глава 09
00: 56: 45.819 : : Глава 10
01: 03: 30.306 : : Глава 11
01: 08: 13.172 : : Глава 12
01: 16: 45.935 : : Глава 13
01: 24: 43.996 : : Глава 14
01: 30: 04.733 : : Глава 15
01: 34: 00.927 : : Глава 16
01: 42: 14.462 : : Глава 17
01: 47: 07.588 : : Глава 18

Скриншоты для ознакомления



Все одноименные релизы в Клубе
Время раздачи: 19 - 23 (до появления первых 3-5 скачавших)

Гемини/Gemini Man (2019) HDRip [H.265] [10-bit] [60 fps]
Рейтинг →
 (голосов: 1, оценка 3/5, голосовать можно 1 раз )

Другие торренты по теме:

  • Гемини / Gemini Man (2019) CAMRip [MVO] [AD]
  • Гемини / Gemini Man (2019) CAMRip [H.264 / 720p-LQ] [MVO] [AD]
  • Гемини / Gemini Man (2019) WEBRip [H.264 / 1080p-LQ] [Line, AD]
  • Гемини / Gemini Man (2019) WEBRip [UKR] [Line] [PR]
  • Гемини / Gemini Man (2019) WEBRip [H.264 / 1080p-LQ] [UKR, EN / ENG Sub] [Line]
  • Гемини / Gemini Man (2019) WEB-DLRip [H.264]
  • Гемини / Gemini Man (2019) WEB-DLRip
  • Гемини / Gemini Man (2019) WEB-DL [H.264 / 1080p-LQ]


    • Комментарии (0):

      Информация

      Информация

        Посетители, находящиеся в группе Гости, не могут оставлять комментарии в данной новости.