Подписывайся на наш канал в Telegram https://t.me/torrentok и получи доступ к торрентам без ограничений!
.
Авторизация | Регистрация
torrent123.club


Ford против Ferrari / Ford v Ferrari (2019) BDRip [H.264 / 1080p-LQ] [hand made 16:9] торрент скачать бесплатно

Дата: 16-02-2020, 05:01 | .torrent скачали: 3

Ford против Ferrari / Ford v Ferrari (2019) BDRip [H.264 / 1080p-LQ] [hand made 16:9]Производство: США, Франция, Chernin Entertainment, Twentieth Century Fo
Жанр: Драма, биография, спорт
Режиссер: Джеймс Мэнголд
Продюсер: Dani Bernfeld, Питер Чернин, Anthony Dixon,

Актеры
Кристиан Бэйл, Мэтт Дэймон, Катрина Балф, Трэйси Леттс, Джон Бернтал, Ноа Джуп, Джош Лукас, Ремо Джироне, Рэй МакКиннон, Джей Джей Филд

Описание

Фильм рассказывает о взаимоотношениях американского автомобильного конструктора Кэрролла Шелби и отважного британского гонщика Кена Майлза, которые вместе бросили вызов корпорациям и собственным демонам, чтобы создать абсолютно новый спорткар, который смог конкурировать с Ferrari на чемпионате мира, прошедшем во Франции в середине 1960-х.

Возраст: 16+ (зрителям, достигшим 16 лет)
Рейтинг MPAA: PG-13 (детям до 13 лет просмотр нежелателен)
Дата мировой премьеры: 30 августа 2019
Дата российской премьеры: 14 ноября 2019, Двадцатый Век Фокс СНГ
Релиз от: SergeyAms
Продолжительность: 02: 32: 35
Качество видео: BDRip
Перевод: Дублированный (iTunes)
Субтитры: Русские (форс., полные), английские (полные)
Видео: AVC/H.264, 1920x1080, ~5 Mbps
Аудио #1 : AC3, 6 ch, 384 Kbps - Русский (дубляж)
Аудио #2 : AC3, 2 ch, 192 Kbps - Украинский (дубляж)
Аудио #3 : DTS, 6 ch, 768 Kbps - Английский
Unique ID : 174730861955613860968458857249983318491 (0x8373F09EEAEB3152A29BC8BAEC7E49DB)
Complete name : D: TempNNMFordVsFerrari.2019.1080p.FS.mkv
Format : Matroska
Format version : Version 4/Version 2
File size : 6.76 GiB
Duration : 2h 32mn
Overall bit rate : 6 340 Kbps
Movie name : Ford против Ferrari.2019
Encoded date : UTC 2020-02-14 15: 50: 02
Writing application : mkvmerge v9.8.0 (\'Kuglblids\') 64bit
Writing library : libebml v1.3.4 + libmatroska v1.4.5
Video
ID : 1
Format : AVC
Format/Info : Advanced Video Codec
Format profile : High@L4.1
Format settings, CABAC : Yes
Format settings, ReFrames : 4 frames
Codec ID : V_MPEG4/ISO/AVC
Duration : 2h 32mn
Bit rate : 5 000 Kbps
Width : 1 920 pixels
Height : 1 080 pixels
Display aspect ratio : 16: 9
Frame rate mode : Constant
Frame rate : 23.976 fps
Color space : YUV
Chroma subsampling : 4: 2: 0
Bit depth : 8 bits
Scan type : Progressive
Bits/(Pixel*Frame) : 0.101
Stream size : 5.19 GiB (77%)
Writing library : x264 core 157 r2935 545de2f
Encoding settings : cabac=1/ref=4/deblock=1: -3: -3/analyse=0x3: 0x113/me=umh/subme=11/psy=1/psy_rd=1.05: 0.10/mixed_ref=1/me_range=48/chroma_me=1/trellis=2/8x8dct=1/cqm=0/deadzone=21, 11/fast_pskip=0/chroma_qp_offset=-3/threads=5/lookahead_threads=1/sliced_threads=0/nr=0/decimate=0/interlaced=0/bluray_compat=0/constrained_intra=0/bframes=10/b_pyramid=2/b_adapt=2/b_bias=0/direct=1/weightb=1/open_gop=0/weightp=2/keyint=240/keyint_min=24/scenecut=40/intra_refresh=0/rc=2pass/mbtree=0/bitrate=5000/ratetol=1.0/qcomp=0.70/qpmin=3/qpmax=69/qpstep=4/cplxblur=20.0/qblur=0.5/ip_ratio=1.40/pb_ratio=1.30/aq=2: 1.00
Default : Yes
Forced : No
Audio #1
ID : 2
Format : AC-3
Format/Info : Audio Coding 3
Mode extension : CM (complete main)
Format settings, Endianness : Big
Codec ID : A_AC3
Duration : 2h 32mn
Bit rate mode : Constant
Bit rate : 384 Kbps
Channel(s) : 6 channels
Channel positions : Front: L C R, Side: L R, LFE
Sampling rate : 48.0 KHz
Bit depth : 16 bits
Compression mode : Lossy
Stream size : 419 MiB (6%)
Language : Russian
Default : Yes
Forced : No
Audio #2
ID : 3
Format : AC-3
Format/Info : Audio Coding 3
Format profile : Dolby Digital
Mode extension : CM (complete main)
Format settings, Endianness : Big
Codec ID : A_AC3
Duration : 2h 32mn
Bit rate mode : Constant
Bit rate : 192 Kbps
Channel(s) : 2 channels
Channel positions : Front: L R
Sampling rate : 48.0 KHz
Bit depth : 16 bits
Compression mode : Lossy
Stream size : 210 MiB (3%)
Language : Ukrainian
Default : No
Forced : No
Audio #3
ID : 4
Format : DTS
Format/Info : Digital Theater Systems
Mode : 16
Format settings, Endianness : Big
Codec ID : A_DTS
Duration : 2h 32mn
Bit rate mode : Constant
Bit rate : 768 Kbps
Channel(s) : 6 channels
Channel positions : Front: L C R, Side: L R, LFE
Sampling rate : 48.0 KHz
Bit depth : 16 bits
Compression mode : Lossy
Stream size : 838 MiB (12%)
Language : English
Default : No
Forced : No
Text #1
ID : 5
Format : UTF-8
Codec ID : S_TEXT/UTF8
Codec ID/Info : UTF-8 Plain Text
Title : Forced
Language : Russian
Default : Yes
Forced : No
Text #2
ID : 6
Format : UTF-8
Codec ID : S_TEXT/UTF8
Codec ID/Info : UTF-8 Plain Text
Title : Full
Language : Russian
Default : No
Forced : No
Text #3
ID : 7
Format : UTF-8
Codec ID : S_TEXT/UTF8
Codec ID/Info : UTF-8 Plain Text
Title : Full
Language : English
Default : No
Forced : No
Menu
00: 00: 00.000 : en: Chapter 01
00: 04: 44.617 : en: Chapter 02
00: 07: 31.533 : en: Chapter 03
00: 10: 01.807 : en: Chapter 04
00: 15: 38.309 : en: Chapter 05
00: 20: 14.167 : en: Chapter 06
00: 21: 38.792 : en: Chapter 07
00: 25: 59.886 : en: Chapter 08
00: 31: 56.867 : en: Chapter 09
00: 34: 08.748 : en: Chapter 10
00: 39: 12.258 : en: Chapter 11
00: 42: 05.888 : en: Chapter 12
00: 45: 55.993 : en: Chapter 13
00: 48: 37.654 : en: Chapter 14
00: 51: 21.067 : en: Chapter 15
00: 55: 02.663 : en: Chapter 16
00: 57: 49.788 : en: Chapter 17
01: 00: 26.027 : en: Chapter 18
01: 06: 32.476 : en: Chapter 19
01: 11: 58.802 : en: Chapter 20
01: 16: 12.764 : en: Chapter 21
01: 19: 29.502 : en: Chapter 22
01: 24: 17.748 : en: Chapter 23
01: 29: 23.969 : en: Chapter 24
01: 33: 15.158 : en: Chapter 25
01: 38: 10.285 : en: Chapter 26
01: 40: 56.451 : en: Chapter 27
01: 43: 22.305 : en: Chapter 28
01: 45: 48.200 : en: Chapter 29
01: 50: 37.947 : en: Chapter 30
01: 53: 37.333 : en: Chapter 31
01: 57: 46.581 : en: Chapter 32
02: 00: 15.645 : en: Chapter 33
02: 05: 21.866 : en: Chapter 34
02: 09: 17.350 : en: Chapter 35
02: 12: 00.471 : en: Chapter 36
02: 15: 25.383 : en: Chapter 37
02: 18: 22.101 : en: Chapter 38
02: 20: 45.409 : en: Chapter 39
02: 26: 26.582 : en: Chapter 40

Скриншоты для ознакомления



Все одноименные релизы в Клубе
Время раздачи: 24/7 (мультитрекер)
Рейтинг →
 (голосов: 1, оценка 3/5, голосовать можно 1 раз )

Другие торренты по теме:

  • Ford против Ferrari / Ford v Ferrari (2019) WEBRip [Line, AD]
  • Ford против Ferrari / Ford v Ferrari (2019) WEBRip [H.264 / 1080p-LQ] [Line, AD]
  • Ford против Ferrari / Ford v Ferrari (2019) WEBRip [H.264] [Line, AD]
  • Ford против Ferrari / Ford v Ferrari (2019) WEBRip [H.264 / 720p-LQ] [Line, AD]
  • Ford против Ferrari / Ford v Ferrari (2019) WEBRip [EN / RU, EN Sub]
  • Ford против Ferrari / Ford v Ferrari (2019) WEBRip [UKR] [Line]
  • Ford против Ferrari / Ford v Ferrari (2019) WEBRip [H.264] [UKR] [Line]
  • Ford против Ferrari / Ford v Ferrari (2019) WEBRip [H.264] [EN / RU, EN Sub]


    • Комментарии (0):

      Информация

      Информация

        Посетители, находящиеся в группе Гости, не могут оставлять комментарии в данной новости.