Подписывайся на наш канал в Telegram https://t.me/torrentok и получи доступ к торрентам без ограничений!
.
Авторизация | Регистрация
torrent123.club
Торрент трекер | Скачать торрент | Скачать Через Торрент | Скачать торрент бесплатно | Скачать торрент без регистрации Другое торрент скачать Малефисента: Владычица тьмы / Maleficent: Mistress of Evil (2019) BDRip 3D [H.264 / 1080p-LQ] [вертикальная анаморфная стереопара] [hand made 16:9] торрент скачать бесплатно


    Малефисента: Владычица тьмы / Maleficent: Mistress of Evil (2019) BDRip 3D [H.264 / 1080p-LQ] [вертикальная анаморфная стереопара] [hand made 16:9] торрент скачать бесплатно

    Дата: 16-02-2020, 05:01 | .torrent скачали: 0

    Малефисента: Владычица тьмы / Maleficent: Mistress of Evil (2019) BDRip 3D [H.264 / 1080p-LQ] [вертикальная анаморфная стереопара] [hand made 16:9]Производство: США, Великобритания/Jolie Pas, Roth Films, Walt Disney Pictures
    Жанр: Фэнтези, Приключения, Семейный
    Режиссер: Хоаким Роннинг

    Актеры
    Анджелина Джоли, Элль Фэннинг, Харрис Дикинсон, Мишель Пфайффер, Сэм Райли, Чиветел Эджиофор, Эд Скрейн, Роберт Линдсей, Дэвид Гяси, Дженн Мюррэй

    Описание

    Принцесса Аврора выросла, и теперь принц Филип делает ей предложение. Наивные молодые люди уверены, что их брак сможет объединить два королевства и помирить людей с волшебными существами, но не тут-то было. На совместном ужине с родителями Филипа, королём Джоном и королевой Ингрит, куда была приглашена и крёстная Авроры, происходит ссора, в результате чего король слегает с недомоганием явно магического свойства, а Малифисента вынуждена спасаться бегством.

    Возраст: 6+ (зрителям, достигшим 6 лет)
    Рейтинг MPAA: PG (рекомендуется присутствие родителей)
    Дата мировой премьеры: 16 октября 2019
    Дата российской премьеры: 17 октября 2019, WDSSPR 3D
    Релиз от: SergeyAms
    Продолжительность: 01: 58: 50
    Качество видео: BDRip 3D
    Перевод: Дублированный
    Субтитры: Русские (полные), английские (полные)
    Видео: AVC/H.264, 1920x1080, ~6 Mbps
    Аудио #1: AC3, 6 ch, 384 Kbps - Русский (DUB, iTunes)
    Аудио #2: AC3, 2 ch, 192 Kbps - Украинский (DUB, iTunes)
    Аудио #3: AC3, 6 ch, 640 Kbps - Английский
    x264 info: frame I: 1979 Avg QP: 18.50 size: 156686
    x264 info: frame P: 50661 Avg QP: 19.74 size: 56148
    x264 info: frame B: 118312 Avg QP: 21.20 size: 18524
    Unique ID : 176537694191883612109681438108070052887 (0x84CFEC53EEF55CBC01B4FCF6B7020417)
    Complete name : D: TempNNMМалефисента.2019.1080p.FS.mkv
    Format : Matroska
    Format version : Version 4/Version 2
    File size : 5.99 GiB
    Duration : 1h 58mn
    Overall bit rate : 7 221 Kbps
    Movie name : MALEFICIENT_MOE_2019_3D_RMX.Title0
    Writing library : Lavf57.71.100
    Video
    ID : 1
    Format : AVC
    Format/Info : Advanced Video Codec
    Format profile : High@L4.1
    Format settings, CABAC : Yes
    Format settings, ReFrames : 4 frames
    Codec ID : V_MPEG4/ISO/AVC
    Duration : 1h 58mn
    Bit rate : 6 000 Kbps
    Width : 1 920 pixels
    Height : 1 080 pixels
    Display aspect ratio : 16: 9
    Frame rate mode : Constant
    Frame rate : 23.976 fps
    Color space : YUV
    Chroma subsampling : 4: 2: 0
    Bit depth : 8 bits
    Scan type : Progressive
    Bits/(Pixel*Frame) : 0.121
    Stream size : 4.87 GiB (81%)
    Writing library : x264 core 157 r2935 545de2f
    Encoding settings : cabac=1/ref=4/deblock=1: -3: -3/analyse=0x3: 0x113/me=umh/subme=10/psy=1/psy_rd=1.05: 0.10/mixed_ref=1/me_range=24/chroma_me=1/trellis=2/8x8dct=1/cqm=0/deadzone=21, 11/fast_pskip=0/chroma_qp_offset=-3/threads=5/lookahead_threads=1/sliced_threads=0/nr=0/decimate=0/interlaced=0/bluray_compat=0/constrained_intra=0/bframes=6/b_pyramid=2/b_adapt=2/b_bias=0/direct=1/weightb=1/open_gop=0/weightp=2/keyint=240/keyint_min=24/scenecut=40/intra_refresh=0/rc=2pass/mbtree=0/bitrate=6000/ratetol=1.0/qcomp=0.70/qpmin=3/qpmax=69/qpstep=4/cplxblur=20.0/qblur=0.5/ip_ratio=1.40/pb_ratio=1.30/aq=2: 1.00
    Default : Yes
    Forced : No
    Color primaries : BT.709
    Transfer characteristics : BT.709
    Matrix coefficients : BT.709
    Audio #1
    ID : 2
    Format : AC-3
    Format/Info : Audio Coding 3
    Mode extension : CM (complete main)
    Format settings, Endianness : Big
    Codec ID : A_AC3
    Duration : 1h 58mn
    Bit rate mode : Constant
    Bit rate : 384 Kbps
    Channel(s) : 6 channels
    Channel positions : Front: L C R, Side: L R, LFE
    Sampling rate : 48.0 KHz
    Bit depth : 16 bits
    Compression mode : Lossy
    Stream size : 326 MiB (5%)
    Language : Russian
    Default : Yes
    Forced : No
    Audio #2
    ID : 3
    Format : AC-3
    Format/Info : Audio Coding 3
    Mode extension : CM (complete main)
    Format settings, Endianness : Big
    Codec ID : A_AC3
    Duration : 1h 58mn
    Bit rate mode : Constant
    Bit rate : 192 Kbps
    Channel(s) : 2 channels
    Channel positions : Front: L R
    Sampling rate : 48.0 KHz
    Bit depth : 16 bits
    Compression mode : Lossy
    Stream size : 163 MiB (3%)
    Language : Ukrainian
    Default : No
    Forced : No
    Audio #3
    ID : 4
    Format : AC-3
    Format/Info : Audio Coding 3
    Mode extension : CM (complete main)
    Format settings, Endianness : Big
    Codec ID : A_AC3
    Duration : 1h 58mn
    Bit rate mode : Constant
    Bit rate : 640 Kbps
    Channel(s) : 6 channels
    Channel positions : Front: L C R, Side: L R, LFE
    Sampling rate : 48.0 KHz
    Bit depth : 16 bits
    Compression mode : Lossy
    Stream size : 544 MiB (9%)
    Language : English
    Default : No
    Forced : No
    Text #1
    ID : 5
    Format : UTF-8
    Codec ID : S_TEXT/UTF8
    Codec ID/Info : UTF-8 Plain Text
    Title : Full
    Language : Russian
    Default : Yes
    Forced : No
    Text #2
    ID : 6
    Format : UTF-8
    Codec ID : S_TEXT/UTF8
    Codec ID/Info : UTF-8 Plain Text
    Title : Full
    Language : English
    Default : No
    Forced : No
    Menu
    00: 00: 00.000 : : (01)00: 00: 00: 000
    00: 06: 47.906 : : (02)00: 06: 47: 906
    00: 09: 11.676 : : (03)00: 09: 11: 676
    00: 14: 45.551 : : (04)00: 14: 45: 551
    00: 19: 27.833 : : (05)00: 19: 27: 833
    00: 23: 10.555 : : (06)00: 23: 10: 555
    00: 33: 51.903 : : (07)00: 33: 51: 903
    00: 39: 10.264 : : (08)00: 39: 10: 264
    00: 42: 19.577 : : (09)00: 42: 19: 577
    00: 48: 31.992 : : (10)00: 48: 31: 992
    00: 52: 44.744 : : (11)00: 52: 44: 744
    00: 57: 15.139 : : (12)00: 57: 15: 139
    00: 59: 26.144 : : (13)00: 59: 26: 144
    01: 05: 47.568 : : (14)01: 05: 47: 568
    01: 09: 31.750 : : (15)01: 09: 31: 750
    01: 19: 07.242 : : (16)01: 19: 07: 242
    01: 22: 48.546 : : (17)01: 22: 48: 546
    01: 29: 09.216 : : (18)01: 29: 09: 216
    01: 35: 00.653 : : (19)01: 35: 00: 653
    01: 44: 26.510 : : (20)01: 44: 26: 510
    01: 51: 06.993 : : (21)01: 51: 06: 993
    01: 58: 50.288 : : (22)01: 58: 50: 288

    Скриншоты для ознакомления



    Все одноименные релизы в Клубе
    Время раздачи: 24/7 (до появления первых 3-5 скачавших)
    Рейтинг →
     (голосов: 1, оценка 4/5, голосовать можно 1 раз )

    Другие торренты по теме:

  • Малефисента: Владычица тьмы / Maleficent: Mistress of Evil (2019) CAMRip [H.264 / 720p-LQ] [AD]
  • Малефисента: Владычица тьмы / Maleficent: Mistress of Evil (2019) WEB-DLRip
  • Малефисента: Владычица тьмы / Maleficent: Mistress of Evil (2019) WEB-DL [H.264 / 720p]
  • Малефисента: Владычица тьмы / Maleficent: Mistress of Evil (2019) WEB-DL [H.264 / 1080p-LQ]
  • Малефисента: Владычица тьмы / Maleficent: Mistress of Evil (2019) WEB-DLRip [H.264]
  • Малефисента: Владычица тьмы / Maleficent: Mistress of Evil (2019) WEB-DL [H.264 / 1080p]
  • Малефисента: Владычица тьмы / Maleficent: Mistress of Evil (2019) WEB-DLRip [H.264]
  • Малефисента: Владычица тьмы / Maleficent: Mistress of Evil (2019) BDRip [H.264 / 1080p] [PR]


    • Комментарии (0):

      Информация

      Информация

        Посетители, находящиеся в группе Гости, не могут оставлять комментарии в данной новости.