Подписывайся на наш канал в Telegram https://t.me/torrentok и получи доступ к торрентам без ограничений!
.
Авторизация | Регистрация
torrent123.club

Юрий Сучков - Муму. Голливудская версия (2020) Master-Clip [Н.264 / 720p] <Chanson> торрент скачать бесплатно

Дата: 16-02-2020, 05:01 | .torrent скачали: 1

Юрий Сучков - Муму. Голливудская версия (2020) Master-Clip [Н.264 / 720p] &ltChanson>Производство: (с) 2020 Zymotic Productions Ultra
Жанр: А Fun Chanson To Lift Your Mood
Режиссер: Юрий Сучков

Актеры
Герасим

Описание

01. 2020-Юрий Сучков - \'\'Муму. Голливудская версия\'\' (single) Видеоприложение
Релиз от: Vayper
Продолжительность: 00: 06: 24
Качество видео: Master-Clip
Видео: AVC/H.264, 1280x720 (1.778), ~7082 kbps
Аудио: AAC, 2 ch, 320 Kbps
General
Complete name : C: VIDEOЮрий Сучков. Video Albums h.264_720p_1080p9. Юрий Сучков. Муму Video Album 20209.01. Юрий Сучков.Муму.Голливудская версия 2020.mp4
Format : MPEG-4
Format profile : Base Media/Version 2
Codec ID : mp42 (mp42/isom)
File size : 325 MiB
Duration : 6 min 24 s
Overall bit rate mode : Variable
Overall bit rate : 7 082 kb/s
Encoded date : UTC 2020-02-12 08: 28: 28
Tagged date : UTC 2020-02-12 08: 28: 28
Video
ID : 2
Format : AVC
Format/Info : Advanced Video Codec
Format profile : High@L4
Format settings : CABAC/2 Ref Frames
Format settings, CABAC : Yes
Format settings, Reference frames : 2 frames
Format settings, GOP : M=2, N=15
Muxing mode : Container profile=Baseline@3.1
Codec ID : avc1
Codec ID/Info : Advanced Video Coding
Duration : 6 min 24 s
Bit rate mode : Variable
Bit rate : 6 757 kb/s
Maximum bit rate : 16.0 Mb/s
Width : 1 280 pixels
Height : 720 pixels
Display aspect ratio : 16: 9
Frame rate mode : Constant
Frame rate : 29.970 (30000/1001) FPS
Color space : YUV
Chroma subsampling : 4: 2: 0
Bit depth : 8 bits
Scan type : Progressive
Bits/(Pixel*Frame) : 0.245
Stream size : 310 MiB (95%)
Language : English
Encoded date : UTC 2020-02-12 08: 28: 28
Tagged date : UTC 2020-02-12 08: 28: 28
Codec configuration box : avcC
Audio
ID : 1
Format : AAC LC
Format/Info : Advanced Audio Codec Low Complexity
Codec ID : mp4a-40-2
Duration : 6 min 24 s
Bit rate mode : Constant
Bit rate : 320 kb/s
Channel(s) : 2 channels
Channel layout : L R
Sampling rate : 44.1 kHz
Frame rate : 43.066 FPS (1024 SPF)
Compression mode : Lossy
Stream size : 14.7 MiB (5%)
Language : English
Encoded date : UTC 2020-02-12 08: 28: 28
Tagged date : UTC 2020-02-12 08: 28: 28

Скриншоты для ознакомления



Все одноименные релизы в Клубе
Время раздачи: с 08: 00 до 24: 00 (до появления первых 3-5 скачавших)
Рейтинг →
 (голосов: 1, оценка 4/5, голосовать можно 1 раз )

Другие торренты по теме:

  • Юрий Сучков - Видеоальбомы (8 релизов: 98 Music Videos) (2017-2019) [H.264 / 720p] [hand made]
  • Юрий Сучков - 12 релизов 133 треков (2007-2019) Авторская раздача [MP3|V2~190 Kbps, V0~262 Kbps] <Chanson, Post-Punk, Monolog>
  • Юрий Сучков - Видеоальбомы (8 релизов: 98 Music Videos) (2017-2019) HDRip [H.264] [Hand Made]
  • Юрий Сучков - Муму. Голливудская версия (single) (2020) [MP3|320 Kbps] <Chanson>
  • Юрий Сучков - На острове Чунга-Чанга (2020) Single [MP3|320 Kbps] <Chanson, Post-Punk>
  • Юрий Сучков - 5 Видеоклипов (2020) [H.264 / 720p] <Chanson, Post-Punk>


    • Комментарии (0):

      Информация

      Информация

        Посетители, находящиеся в группе Гости, не могут оставлять комментарии в данной новости.