Подписывайся на наш канал в Telegram https://t.me/torrentok и получи доступ к торрентам без ограничений!
.
Авторизация | Регистрация
torrent123.club


Великие мрачные дни / La grande noirceur / The Great Darkened Days (2018) HDRip [MVO] [AD] торрент скачать бесплатно

Дата: 17-02-2020, 05:00 | .torrent скачали: 0

Великие мрачные дни / La grande noirceur / The Great Darkened Days (2018) HDRip [MVO] [AD]Производство: Канада/Metafilms
Жанр: Драма, История
Режиссер: Максим Жиру

Актеры
Мартин Дюбрёй, Mike Calchera, Buddy Duress, Ромен Дюрис, Коди Ферн, Сара Гадон, Реда Катеб, Walter T. Radabagh, Лизе Рой

Описание

В то время как бушует мировая война, Филипп, уклонист из Квебека, находит убежище на американском Западе, выживая, участвуя в конкурсах на подражание Чарли Чаплину. Его путешествие, как жестокое, так и захватывающее, является галлюцинаторным посвящением темной стороне американской мечты.

Продолжительность: 01: 35: 08
Качество видео: HDRip
Перевод: Многоголосый любительский (AlphaProject)
Субтитры: отсутствуют
Реклама: присутствуют аудио, видео и баннерные рекламные вставки
Видео: Xvid, 720x528, ~1664 Kbps
Аудио: AC3, 2 ch, 384 Kbps - Русский (MVO)
General
Complete name : /media/win/TORRENT/UPLOAD_TORRENTS/Be.L.ukue_Mpa4HbIe_gHu_2018_HDRip_AD.avi
Format : AVI
Format/Info : Audio Video Interleave
File size : 1.37 GiB
Duration : 1 h 35 min
Overall bit rate : 2 057 kb/s
Writing application : VirtualDubMod 1.5.10.3 |www.virtualdub-fr.org|| (build 2550/release)
Writing library : VirtualDubMod build 2550/release
Video
ID : 0
Format : MPEG-4 Visual
Format profile : Advanced Simple@L5
Format settings : BVOP2/Custom Matrix
Format settings, BVOP : 2
Format settings, QPel : No
Format settings, GMC : No warppoints
Format settings, Matrix : Custom
Codec ID : XVID
Codec ID/Hint : XviD
Duration : 1 h 35 min
Bit rate : 1 664 kb/s
Width : 720 pixels
Height : 528 pixels
Display aspect ratio : 4: 3
Frame rate : 23.976 (24000/1001) FPS
Color space : YUV
Chroma subsampling : 4: 2: 0
Bit depth : 8 bits
Scan type : Progressive
Compression mode : Lossy
Bits/(Pixel*Frame) : 0.183
Stream size : 1.11 GiB (81%)
Writing library : XviD 1.2.1 (UTC 2008-12-04)
Audio
ID : 1
Format : AC-3
Format/Info : Audio Coding 3
Commercial name : Dolby Digital
Codec ID : 2000
Duration : 1 h 35 min
Bit rate mode : Constant
Bit rate : 384 kb/s
Channel(s) : 2 channels
Channel layout : L R
Sampling rate : 48.0 kHz
Frame rate : 31.250 FPS (1536 SPF)
Compression mode : Lossy
Stream size : 261 MiB (19%)
Alignment : Split across interleaves
Interleave, duration : 42 ms (1.00 video frame)
Interleave, preload duration : 500 ms
Service kind : Complete Main
Рейтинг →
 (голосов: 1, оценка 3/5, голосовать можно 1 раз )

Другие торренты по теме:

  • BBC. Тайны вселенной: Великие ученые своими словами / Secrets of the Universe: Great Scientists in Their Own Words (2014) WEB-DL [H.264 / 1080p]
  • National Geographic. Великие рейды Второй мировой войны (1-4 серия из 6) / WWIIs Greatest Raids (2014) HDTVRip [H.264 / 720p-LQ] (Обновляемая)
  • National Geographic. Великие рейды Второй мировой войны (1-4 серия из 6) / WWIIs Greatest Raids (2014) HDTVRip (Обновляемая)
  • Книжная серия | Великие тайны истории [27 книг] (2011-2012) [FB2, PDF, DJVU]
  • Время. События. Люди. Великие криминальные истории (2014) [MP3]
  • Подборка журналов | Великие художники, их жизнь, вдохновение и творчество №№1-103, 105-120, 123, 131, 145, 147-150 (2003) [PDF]
  • Книжная серия | Великие музеи мира [26 книг] (2011-2012) [PDF]
  • Н.А. Копылов | серия «Великие полководцы России» [7 книг] (2014-2015) [PDF] Обновляемая скачать через торрент бесплатно


    • Комментарии (0):

      Информация

      Информация

        Посетители, находящиеся в группе Гости, не могут оставлять комментарии в данной новости.