Подписывайся на наш канал в Telegram https://t.me/torrentok и получи доступ к торрентам без ограничений!
.
Авторизация | Регистрация
torrent123.club


Doro Pesch & Warlock - Live in London (1985) DVDRip [H.264] [60 fps] торрент скачать бесплатно

Дата: 22-02-2020, 05:00 | .torrent скачали: 1

Doro Pesch & Warlock - Live in London (1985) DVDRip [H.264] [60 fps]Исполнитель: Warlock
Жанр: Heavy Metal

Описание
Выступление рок группы Warlock в 1985 году в Лондоне.
Релиз от: UrryMan
Продолжительность: 01: 03: 01
Качество видео: DVDRip
Видео: AVC/H.264, 704x480 (4: 3) @704: 528, ~3200 kbps
Аудио: AC3, 6 ch, 448 Kbps
Общее
Уникальный идентификатор : 152792728920588185720301583428648336896 (0x72F2CF2728E4D7AC86D81512059A7E00)
Полное имя : D: ХранилищеВидеоDoro Pesch WarlockDoro.Pesch..Warlock.1985.mkv
Формат : Matroska
Версия формата : Version 4
Размер файла : 1, 61 Гбайт
Продолжительность : 1 ч. 3 м.
Общий поток : 3653 Кбит/сек
Дата кодирования : UTC 2020-02-20 19: 50: 33
Программа кодирования : mkvmerge v43.0.0 (\'The Quartermaster\') 64-bit
Библиотека кодирования : libebml v1.3.10 + libmatroska v1.5.2
Обложка : Yes
Attachments : cover.jpg
Видео
Идентификатор : 1
Формат : AVC
Формат/Информация : Advanced Video Codec
Профиль формата : High@L3.1
Настройки формата : CABAC/12 Ref Frames
Параметр CABAC формата : Да
Параметр RefFrames формата : 12 кадров
Идентификатор кодека : V_MPEG4/ISO/AVC
Продолжительность : 1 ч. 3 м.
Битрейт : 3200 Кбит/сек
Ширина : 704 пикселя
Высота : 480 пикселей
Соотношение сторон : 4: 3
Режим частоты кадров : Постоянный
Частота кадров : 60, 000 кадров/сек
Цветовое пространство : YUV
Субдискретизация насыщенности : 4: 2: 0
Битовая глубина : 8 бит
Тип развёртки : Прогрессивная
Бит/(Пиксели*Кадры) : 0.158
Размер потока : 1, 41 Гбайт (88%)
Библиотека кодирования : x264 core 157 r2969 d4099dd
Настройки программы : cabac=1/ref=12/deblock=1: -1: -1/analyse=0x3: 0x133/me=tesa/subme=11/psy=1/psy_rd=1.00: 0.00/mixed_ref=1/me_range=64/chroma_me=1/trellis=2/8x8dct=1/cqm=0/deadzone=21, 11/fast_pskip=0/chroma_qp_offset=-2/threads=15/lookahead_threads=3/sliced_threads=0/nr=0/decimate=1/interlaced=0/bluray_compat=0/constrained_intra=0/bframes=16/b_pyramid=2/b_adapt=2/b_bias=0/direct=3/weightb=1/open_gop=0/weightp=2/keyint=600/keyint_min=30/scenecut=40/intra_refresh=0/rc_lookahead=240/rc=2pass/mbtree=1/bitrate=3200/ratetol=2.0/qcomp=0.70/qpmin=0/qpmax=69/qpstep=4/cplxblur=20.0/qblur=0.5/ip_ratio=1.40/aq=1: 0.80
Default : Да
Forced : Нет
Аудио
Идентификатор : 2
Формат : AC-3
Формат/Информация : Audio Coding 3
Коммерческое название : Dolby Digital
Идентификатор кодека : A_AC3
Продолжительность : 1 ч. 3 м.
Вид битрейта : Постоянный
Битрейт : 448 Кбит/сек
Каналы : 6 каналов
ChannelLayout : L R C LFE Ls Rs
Частота : 48, 0 КГц
Частота кадров : 31, 250 кадров/сек (1536 SPF)
Метод сжатия : С потерями
Размер потока : 202 Мбайт (12%)
Язык : English
ServiceKind/String : Complete Main
Default : Да
Forced : Нет
Меню
00: 00: 00.000 : en: 00. Intro
00: 00: 43.467 : en: 01. Out Of Control
00: 04: 39.467 : en: 02. Earthshaker Rock
00: 08: 47.733 : en: 03. Metal Racer
00: 12: 33.250 : en: 04. Wrathchild
00: 16: 28.367 : en: 05. Hellbound
00: 19: 59.400 : en: 06. Holding me
00: 24: 24.133 : en: 07. Shout It Out
00: 28: 36.583 : en: 08. Evil
00: 35: 34.150 : en: 09. Without You
00: 41: 50.717 : en: 10. Hateful Guy
00: 46: 13.667 : en: 11. All Night
00: 50: 40.383 : en: 12. Burning The Witches
00: 58: 22.283 : en: 13. Time To Die
Рейтинг →
 (голосов: 1, оценка 4/5, голосовать можно 1 раз )

Другие торренты по теме:

  • Doro - Doro (1990) [FLAC|Lossless|image + .cue] <Heavy Metal>
  • DORO - Fight (2002) [FLAC|tracks + .cue]<Heavy Metal> скачать через торрент бесплатно
  • DORO - Calling the Wild (2000) / 2001, Soyuz Music / [FLAC|tracks + .cue]<Heavy Metal> скачать через торрент бесплатно
  • Золотой мальчик / Un ragazzo doro (2014) HDRip [Line] скачать через торрент бесплатно
  • Vivaldi - II Pomo dOro, Riccardo Minasi, Dmitry Sinkovsky - Concerti Per Due Violini E Archi I (2013) [FLAC|Lossless|tracks] <Classical, Baroque>
  • Doro - Force Majeure (1989) [FLAC|Lossless|image + .cue] <Heavy Metal>
  • Золотое кимоно воина / Il ragazzo dal kimono doro (1987) DVDRip [H.264] [АVO]
  • Золотое кимоно воина 2 / Il ragazzo dal kimono doro 2 (1988) DVDRip [H.264] [АVO]


    • Комментарии (0):

      Информация

      Информация

        Посетители, находящиеся в группе Гости, не могут оставлять комментарии в данной новости.